Scooby-Doo! & Batman: The Brave and the Bold (2018) WEB-DL 1080p Latino

968 vistas
1 estrella2 estrellas3 estrellas4 estrellas5 estrellas (Ninguna valoración todavía)
Cargando…

Información de Scooby-Doo! & Batman: The Brave and the Bold (2018) WEB-DL 1080p Latino

Datos de la película

  • Calidad: WEBDL
  • Audio: Español Latino AC3 2.0 iTunes - Ingles AC3 5.1 iTunes
  • Subtitulos: Español Latino SRT
  • Resolución: 1920X1080p
  • Formato: MKV
  • Codec: H.264
  • Encoder: CinemaniaHD
  • Mediainfo: Clic para Mostrar Datos Ver
  • Format                                   : Matroska
    Format version                           : Version 4 / Version 2
    File size                                : 2.94 GiB
    Duration                                 : 1 h 15 min
    Overall bit rate                         : 5 600 kb/s
    Movie name                               : CinemaniaHDD.com
    Encoded date                             : UTC 2018-01-09 04:15:23
    Writing application                      : mkvmerge v15.0.0 ('Duel with the Devil') 64-bit
    Writing library                          : libebml v1.3.5 + libmatroska v1.4.5

    Video
    ID                                       : 1
    Format                                   : AVC
    Format/Info                              : Advanced Video Codec
    Format profile                           : High@L4
    Format settings                          : CABAC / 4 Ref Frames
    Format settings, CABAC                   : Yes
    Format settings, RefFrames               : 4 frames
    Codec ID                                 : V_MPEG4/ISO/AVC
    Duration                                 : 1 h 15 min
    Bit rate                                 : 5 022 kb/s
    Width                                    : 1 912 pixels
    Height                                   : 1 072 pixels
    Display aspect ratio                     : 16:9
    Frame rate mode                          : Constant
    Frame rate                               : 23.976 FPS
    Color space                              : YUV
    Chroma subsampling                       : 4:2:0
    Bit depth                                : 8 bits
    Scan type                                : Progressive
    Bits/(Pixel*Frame)                       : 0.102
    Stream size                              : 2.64 GiB (90%)
    Title                                    : file:///C:/Users/andres/Desktop/Scooby-Doo! y Batman el valiente.track_2.ac3
    Language                                 : English
    Default                                  : Yes
    Forced                                   : No
    Color range                              : Limited
    Color primaries                          : BT.709
    Transfer characteristics                 : BT.709
    Matrix coefficients                      : BT.709

    Audio #1
    ID                                       : 2
    Format                                   : AC-3
    Format/Info                              : Audio Coding 3
    Format settings, Endianness              : Big
    Codec ID                                 : A_AC3
    Duration                                 : 1 h 15 min
    Bit rate mode                            : Constant
    Bit rate                                 : 192 kb/s
    Channel(s)                               : 2 channels
    Channel positions                        : Front: L R
    Sampling rate                            : 48.0 kHz
    Frame rate                               : 31.250 FPS (1536 SPF)
    Bit depth                                : 16 bits
    Compression mode                         : Lossy
    Stream size                              : 103 MiB (3%)
    Language                                 : Spanish
    Service kind                             : Complete Main
    Default                                  : Yes
    Forced                                   : No

    Audio #2
    ID                                       : 3
    Format                                   : AC-3
    Format/Info                              : Audio Coding 3
    Format settings, Endianness              : Big
    Codec ID                                 : A_AC3
    Duration                                 : 1 h 15 min
    Bit rate mode                            : Constant
    Bit rate                                 : 384 kb/s
    Channel(s)                               : 6 channels
    Channel positions                        : Front: L C R, Side: L R, LFE
    Sampling rate                            : 48.0 kHz
    Frame rate                               : 31.250 FPS (1536 SPF)
    Bit depth                                : 16 bits
    Compression mode                         : Lossy
    Stream size                              : 206 MiB (7%)
    Language                                 : English
    Service kind                             : Complete Main
    Default                                  : No
    Forced                                   : No

    Text
    ID                                       : 4
    Format                                   : UTF-8
    Codec ID                                 : S_TEXT/UTF8
    Codec ID/Info                            : UTF-8 Plain Text
    Duration                                 : 56 min 41 s
    Bit rate                                 : 0 b/s
    Count of elements                        : 12
    Stream size                              : 332 Bytes (0%)
    Title                                    : Forzados
    Language                                 : Spanish
    Default                                  : Yes
    Forced                                   : No

    Menu
    00:00:00.000                             : en:1
    00:10:33.000                             : en:2
    00:22:40.000                             : en:3
    00:31:15.000                             : en:4
    00:41:52.000                             : en:5
    00:53:45.000                             : en:6
    01:03:07.000                             : en:7
    01:12:08.000                             : en:8

     

  • Peso: 2.94 GiB

Sinopsis

Tres soldados estadounidenses regresan de Irak tratando de reintegrarse con sus familias, y adaptándose a la vida civil mientras luchan por olvidar sus duros recuerdos de la guerra.

Ficha técnica

  • Titulo original: Scooby-Doo & Batman: the Brave and the Bold
  • Fecha de lanzamiento: 09-01-2018
  • Género: Animación
  • Puntuación: 0.0 0 votos
  • Duración:
    1 h 15 min

Video trailer de la película

Enlaces de descarga

Rip de Bluray

Descargar Scooby-Doo! & Batman: The Brave and the Bold (2018) WEB-DL 1080p Latino




Aportes de DPeliculasHDmega la pass es:dpeliculashdmega.org Aportes de CinemaniaHD la pass es:cinemaniahdd.com
Guardado en : Animación

Películas relacionadas

  • Pie Pequeño (2018) Full 1080p Latino

    2018
    Pie Pequeño (2018) Full 1080p Latino

    4.3 1h 36m 2018

    Descargar Pie Pequeño (2018) Full 1080p Latino, Mega, Google Drive. Migo es un Yeti que vive con los...

    Director: Karey Kirkpatrick

    Género: Animación

    Actores: Zendaya

  • Bob Esponja La película (2004) Full 1080p Latino

    2004
    Bob Esponja La película (2004) Full 1080p Latino

    4.6 1h 23m 2004

    Hay problemas en Bikini Bottom: la corona del Rey Neptuno ha desaparecido y las sospechas recaen en el...

    Director: Stephen Hillenburg

    Género: Animación

    Actores: Tom Kenny

  • Pie Pequeño (2018) 1080p Latino

    2018
    Pie Pequeño (2018) 1080p Latino

    5.0 1h 36m 2018

    Descargar Pie Pequeño (2018) 1080p Latino, Mega, Google Drive. Un Yeti está convencido de que las esquivas...

    Director: Karey Kirkpatrick

    Género: Animación

    Actores: Zendaya

Comentarios 0