Scenes from a Marriage (2021) Temporada 1 HBO WEB-DL 1080p Latino

13 vistas
1 estrella2 estrellas3 estrellas4 estrellas5 estrellas (1 votos, promedio: 5,00 de 5)
Cargando...

Información de Scenes from a Marriage (2021) Temporada 1 HBO WEB-DL 1080p Latino

Datos de la película

  • Calidad:
  • Audio: Español Latino AC3 2.0 WEB-DL - Ingles AC3 2.0 WEB-DL
  • Subtitulos: Español Latino SRT- FORZADOS SRT
  • Resolución: 1920x1080
  • Formato: MKV
  • Codec: H.264
  • Encoder: cinemaniahdd
  • Mediainfo: Clic para Mostrar Datos Ver
  • Scenes from a Marriage T01E01 HBO WEB-DL 1080p Latino [CNMNHDD].mkv
    Format                      : Matroska
    Format version              : Version 4
    File size                   : 3.58 GiB
    Duration                    : 56 min 50 s
    Overall bit rate mode       : Variable
    Overall bit rate            : 9 010 kb/s
    Movie name                  : Scenes from a Marriage T01E01 - CinemaniaHDD.Net
    Encoded date                : UTC 2021-09-14 00:51:34
    Writing application         : mkvmerge v56.1.0 ('My Friend') 64-bit
    Writing library             : libebml v1.4.2 + libmatroska v1.6.4

    Video
    ID                          : 1
    Format                      : AVC
    Format/Info                 : Advanced Video Codec
    Format profile              : High@L4
    Format settings             : CABAC / 4 Ref Frames
    Format settings, CABAC      : Yes
    Format settings, Reference  : 4 frames
    Codec ID                    : V_MPEG4/ISO/AVC
    Duration                    : 56 min 50 s
    Bit rate mode               : Variable
    Bit rate                    : 8 250 kb/s
    Maximum bit rate            : 12.4 Mb/s
    Width                       : 1 920 pixels
    Height                      : 1 080 pixels
    Display aspect ratio        : 16:9
    Frame rate mode             : Constant
    Frame rate                  : 23.976 (24000/1001) FPS
    Color space                 : YUV
    Chroma subsampling          : 4:2:0
    Bit depth                   : 8 bits
    Scan type                   : Progressive
    Bits/(Pixel*Frame)          : 0.166
    Stream size                 : 3.27 GiB (91%)
    Title                       : CinemaniaHDD
    Writing library             : x264 core 157 r2965 861cec4
    Encoding settings           : cabac=1 / ref=4 / deblock=1:0:0 / analyse=0x3:0x113 / me=hex / subme=7 / psy=1 / psy_rd=1.00:0.00 / mixed_ref=1 / me_range=16 / chroma_me=1 / trellis=1 / 8x8dct=1 / cqm=0 / deadzone=21,11 / fast_pskip=1 / chroma_qp_offset=-2 / threads=34 / lookahead_threads=5 / sliced_threads=0 / nr=0 / decimate=1 / interlaced=0 / bluray_compat=0 / constrained_intra=0 / bframes=3 / b_pyramid=2 / b_adapt=1 / b_bias=0 / direct=1 / weightb=1 / open_gop=0 / weightp=2 / keyint=96 / keyint_min=96 / scenecut=40 / intra_refresh=0 / rc_lookahead=40 / rc=2pass / mbtree=1 / bitrate=8250 / ratetol=1.0 / qcomp=0.60 / qpmin=0 / qpmax=69 / qpstep=4 / cplxblur=20.0 / qblur=0.5 / vbv_maxrate=12375 / vbv_bufsize=6187 / nal_hrd=vbr / filler=0 / ip_ratio=1.40 / aq=1:1.00
    Default                     : Yes
    Forced                      : No
    Color range                 : Limited
    Color primaries             : BT.709
    Transfer characteristics    : BT.709
    Matrix coefficients         : BT.709

    Audio #1
    ID                          : 2
    Format                      : AC-3
    Format/Info                 : Audio Coding 3
    Commercial name             : Dolby Digital
    Codec ID                    : A_AC3
    Duration                    : 56 min 50 s
    Bit rate mode               : Constant
    Bit rate                    : 384 kb/s
    Channel(s)                  : 2 channels
    Channel layout              : L R
    Sampling rate               : 48.0 kHz
    Frame rate                  : 31.250 FPS (1536 SPF)
    Compression mode            : Lossy
    Stream size                 : 156 MiB (4%)
    Title                       : Español latino [CinemaniaHDD]
    Language                    : Spanish
    Service kind                : Complete Main
    Default                     : Yes
    Forced                      : No

    Audio #2
    ID                          : 3
    Format                      : AC-3
    Format/Info                 : Audio Coding 3
    Commercial name             : Dolby Digital
    Codec ID                    : A_AC3
    Duration                    : 56 min 50 s
    Bit rate mode               : Constant
    Bit rate                    : 384 kb/s
    Channel(s)                  : 6 channels
    Channel layout              : L R C LFE Ls Rs
    Sampling rate               : 48.0 kHz
    Frame rate                  : 31.250 FPS (1536 SPF)
    Compression mode            : Lossy
    Stream size                 : 156 MiB (4%)
    Title                       : Inglés [CinemaniaHDD]
    Language                    : English
    Service kind                : Complete Main
    Default                     : No
    Forced                      : No

    Text #1
    ID                          : 4
    Format                      : UTF-8
    Codec ID                    : S_TEXT/UTF8
    Codec ID/Info               : UTF-8 Plain Text
    Duration                    : 42 min 53 s
    Bit rate                    : 0 b/s
    Count of elements           : 3
    Stream size                 : 69.0 Bytes (0%)
    Title                       : Forzados [CinemaniaHDD]
    Language                    : Spanish
    Default                     : Yes
    Forced                      : Yes

    Text #2
    ID                          : 5
    Format                      : UTF-8
    Codec ID                    : S_TEXT/UTF8
    Codec ID/Info               : UTF-8 Plain Text
    Duration                    : 53 min 14 s
    Bit rate                    : 75 b/s
    Count of elements           : 888
    Stream size                 : 29.5 KiB (0%)
    Title                       : Español latino [CinemaniaHDD]
    Language                    : Spanish
    Default                     : No
    Forced                      : No

    Text #3
    ID                          : 6
    Format                      : UTF-8
    Codec ID                    : S_TEXT/UTF8
    Codec ID/Info               : UTF-8 Plain Text
    Duration                    : 54 min 42 s
    Bit rate                    : 97 b/s
    Count of elements           : 1542
    Stream size                 : 38.9 KiB (0%)
    Title                       : Inglés [CinemaniaHDD]
    Language                    : English
    Default                     : No
    Forced                      : No

     

  • Peso: 3.58 GiB C/U --- 2 CAPITULOS AGREGADOS

Sinopsis

Una crónica de los muchos años de amor y confusión que unen a una pareja estadounidense contemporánea, siguiendo su relación a medida que avanza a través de una serie de etapas sucesivas: matrimonio, infidelidad, divorcio y asociaciones posteriores.

2 CAPITULOS AGREGADOS

Ficha técnica

  • Titulo original: Scenes from a Marriage
  • Fecha de lanzamiento: 12-09-2021 (US)
  • Director: Hagai Levi
  • Género: Drama, HBO, Series
  • Puntuación: 5.0 1 votos
  • Duración:
    0h 56m

Video trailer de la película

Enlaces de descarga

Rip de Bluray

Descargar Scenes from a Marriage (2021) Temporada 1 HBO WEB-DL 1080p Latino




Aportes de DPeliculasHDmega la pass es:dpeliculashdmega.org Aportes de CinemaniaHD la pass es:cinemaniahdd.com
Guardado en : Drama , HBO , Series

Películas relacionadas

Scenes from a Marriage (2021) Temporada 1 HBO WEB-DL 1080p Latino pelicula full hd, Scenes from a Marriage (2021) Temporada 1 HBO WEB-DL 1080p Latino mega latino, Scenes from a Marriage (2021) Temporada 1 HBO WEB-DL 1080p Latino 4k latino, Scenes from a Marriage (2021) Temporada 1 HBO WEB-DL 1080p Latino pelicula completa, Scenes from a Marriage (2021) Temporada 1 HBO WEB-DL 1080p Latino descargar gratis, descargar Scenes from a Marriage (2021) Temporada 1 HBO WEB-DL 1080p Latino pelicula latino, Scenes from a Marriage (2021) Temporada 1 HBO WEB-DL 1080p Latino 1 link mega, Scenes from a Marriage (2021) Temporada 1 HBO WEB-DL 1080p Latino 1 link google drive, Scenes from a Marriage (2021) Temporada 1 HBO WEB-DL 1080p Latino hd 1080p latino.
Comentarios 0