×

¿Problemas para descargar con Mozilla, EDGE? Deshabilita la opción "Abrir vinculos en una pestaña nueva" tal como lo muestra ésta imagen.

Scary Stories to Tell in the Dark (2019) AMZN WEB-DL OPEN MATTE 1080p Latino

1.483 vistas

Información de Scary Stories to Tell in the Dark (2019) AMZN WEB-DL OPEN MATTE 1080p Latino

Datos de la película

  • Calidad: WEBDL
  • Audio: Se especifica abajo de la Sinopsis
  • Subtitulos: Español Latino SRT- FORZADOS SRT
  • Resolución: 1920x1080
  • Formato: MKV
  • Codec: H.264
  • Encoder: cinemaniahdd
  • Mediainfo: Clic para Mostrar Datos Ver
  • Historias de miedo para contar en la oscuridad (2019) AMZN WEB-DL OPEN MATTE 1080p latino.mkv
    Format                      : Matroska
    Format version              : Version 4
    File size                   : 6.24 GiB
    Duration                    : 1 h 47 min
    Overall bit rate            : 8 270 kb/s
    Movie name                  : Historias de miedo para contar en la oscuridad (2019) - CinemaniaHDD.Net
    Encoded date                : UTC 2019-10-23 21:14:19
    Writing application         : mkvmerge v38.0.0 ('The Silent Type') 64-bit
    Writing library             : libebml v1.3.9 + libmatroska v1.5.2

    Video
    ID                          : 1
    Format                      : AVC
    Format/Info                 : Advanced Video Codec
    Format profile              : High@L4
    Format settings             : CABAC / 4 Ref Frames
    Format settings, CABAC      : Yes
    Format settings, ReFrames   : 4 frames
    Codec ID                    : V_MPEG4/ISO/AVC
    Duration                    : 1 h 47 min
    Bit rate mode               : Constant
    Bit rate                    : 7 181 kb/s
    Nominal bit rate            : 10 000 kb/s
    Width                       : 1 920 pixels
    Height                      : 1 080 pixels
    Display aspect ratio        : 16:9
    Frame rate mode             : Constant
    Frame rate                  : 23.976 (24000/1001) FPS
    Color space                 : YUV
    Chroma subsampling          : 4:2:0
    Bit depth                   : 8 bits
    Scan type                   : Progressive
    Bits/(Pixel*Frame)          : 0.144
    Stream size                 : 5.41 GiB (87%)
    Title                       : CinemaniaHDD
    Default                     : Yes
    Forced                      : No
    Color range                 : Limited
    Color primaries             : BT.709
    Transfer characteristics    : BT.709
    Matrix coefficients         : BT.709

    Audio #1
    ID                          : 2
    Format                      : AC-3
    Format/Info                 : Audio Coding 3
    Commercial name             : Dolby Digital
    Codec ID                    : A_AC3
    Duration                    : 1 h 47 min
    Bit rate mode               : Constant
    Bit rate                    : 448 kb/s
    Channel(s)                  : 6 channels
    Channel layout              : L R C LFE Ls Rs
    Sampling rate               : 48.0 kHz
    Frame rate                  : 31.250 FPS (1536 SPF)
    Bit depth                   : 16 bits
    Compression mode            : Lossy
    Stream size                 : 346 MiB (5%)
    Title                       : Español latino [CinemaniaHDD]
    Language                    : Spanish
    Service kind                : Complete Main
    Default                     : Yes
    Forced                      : No

    Audio #2
    ID                          : 3
    Format                      : E-AC-3
    Format/Info                 : Enhanced AC-3
    Commercial name             : Dolby Digital Plus
    Codec ID                    : A_EAC3
    Duration                    : 1 h 47 min
    Bit rate mode               : Constant
    Bit rate                    : 640 kb/s
    Channel(s)                  : 6 channels
    Channel layout              : L R C LFE Ls Rs
    Sampling rate               : 48.0 kHz
    Frame rate                  : 31.250 FPS (1536 SPF)
    Compression mode            : Lossy
    Stream size                 : 494 MiB (8%)
    Title                       : Inglés [CinemaniaHDD]
    Language                    : English
    Service kind                : Complete Main
    Default                     : No
    Forced                      : No

    Text #1
    ID                          : 4
    Format                      : UTF-8
    Codec ID                    : S_TEXT/UTF8
    Codec ID/Info               : UTF-8 Plain Text
    Duration                    : 1 h 37 min
    Bit rate                    : 0 b/s
    Count of elements           : 22
    Stream size                 : 673 Bytes (0%)
    Title                       : Forzados [CinemaniaHDD]
    Language                    : Spanish
    Default                     : Yes
    Forced                      : Yes

    Text #2
    ID                          : 5
    Format                      : UTF-8
    Codec ID                    : S_TEXT/UTF8
    Codec ID/Info               : UTF-8 Plain Text
    Duration                    : 1 h 39 min
    Bit rate                    : 50 b/s
    Count of elements           : 1251
    Stream size                 : 36.6 KiB (0%)
    Title                       : Español latino [CinemaniaHDD]
    Language                    : Spanish
    Default                     : No
    Forced                      : No

     

  • Peso: 6.24 GiB

Sinopsis

Un grupo de adolescentes debe resolver el misterio que rodea a una serie de repentinas y macabras muertes que suceden en su pueblo. Producida por Guillermo del Toro.

Español Latino AC3 5.1 DVD – Ingles E-AC3 5.1 AMAZON

Ficha técnica

Video trailer de la película

Enlaces de descarga

Rip de Bluray

Descargar Scary Stories to Tell in the Dark (2019) AMZN WEB-DL OPEN MATTE 1080p Latino




Aportes de DPeliculasHDmega la pass es:dpeliculashdmega.org Aportes de CinemaniaHD la pass es:cinemaniahdd.com
Guardado en : OPEN MATTE , Suspenso , Terror

Películas relacionadas

descargar Scary Stories to Tell in the Dark (2019) AMZN WEB-DL OPEN MATTE 1080p Latino WEBDL 1080p gratis, Scary Stories to Tell in the Dark (2019) AMZN WEB-DL OPEN MATTE 1080p Latino WEBDL mega 1 link, Scary Stories to Tell in the Dark (2019) AMZN WEB-DL OPEN MATTE 1080p Latino WEBDL pelicula completa, descargar Scary Stories to Tell in the Dark (2019) AMZN WEB-DL OPEN MATTE 1080p Latino WEBDL gratis en mega.

Scary Stories to Tell in the Dark (2019) AMZN WEB-DL OPEN MATTE 1080p Latino pelicula full hd, Scary Stories to Tell in the Dark (2019) AMZN WEB-DL OPEN MATTE 1080p Latino mega latino, Scary Stories to Tell in the Dark (2019) AMZN WEB-DL OPEN MATTE 1080p Latino 4k latino, Scary Stories to Tell in the Dark (2019) AMZN WEB-DL OPEN MATTE 1080p Latino pelicula completa, Scary Stories to Tell in the Dark (2019) AMZN WEB-DL OPEN MATTE 1080p Latino descargar gratis, descargar Scary Stories to Tell in the Dark (2019) AMZN WEB-DL OPEN MATTE 1080p Latino pelicula latino, Scary Stories to Tell in the Dark (2019) AMZN WEB-DL OPEN MATTE 1080p Latino 1 link mega, Scary Stories to Tell in the Dark (2019) AMZN WEB-DL OPEN MATTE 1080p Latino 1 link google drive, Scary Stories to Tell in the Dark (2019) AMZN WEB-DL OPEN MATTE 1080p Latino hd 1080p latino.
Comentarios 0