×

¿Problemas para descargar con Mozilla, EDGE? Deshabilita la opción "Abrir vinculos en una pestaña nueva" tal como lo muestra ésta imagen.

Scary Movie 5 (2013) Full HD 1080p Latino

470 vistas

Información de Scary Movie 5 (2013) Full HD 1080p Latino

Datos de la película

  • Calidad: Full 1080p
  • Audio: Español Latino AC3 2.0 DVD - Ingles AC3 5.1 BLURAY
  • Subtitulos: Español Latino SRT
  • Resolución: 1920x1080p
  • Formato: MKV
  • Codec: H.264
  • Encoder: Dracarys
  • Mediainfo: Clic para Mostrar Datos Ver
  • Format                      : Matroska
    Format version              : Version 4
    File size                   : 4.05 GiB
    Duration                    : 1 h 28 min
    Overall bit rate            : 6 573 kb/s
    Movie name                  : CinemaniaHDD.net
    Encoded date                : UTC 2020-05-01 04:25:02
    Writing application         : mkvmerge v38.0.0 ('The Silent Type') 64-bit
    Writing library             : libebml v1.3.9 + libmatroska v1.5.2 / Lavf58.20.100

    Video
    ID                          : 1
    Format                      : AVC
    Format/Info                 : Advanced Video Codec
    Format profile              : High@L4.1
    Format settings             : CABAC / 4 Ref Frames
    Format settings, CABAC      : Yes
    Format settings, ReFrames   : 4 frames
    Codec ID                    : V_MPEG4/ISO/AVC
    Duration                    : 1 h 28 min
    Bit rate                    : 5 675 kb/s
    Width                       : 1 920 pixels
    Height                      : 1 080 pixels
    Display aspect ratio        : 16:9
    Frame rate mode             : Constant
    Frame rate                  : 23.976 (24000/1001) FPS
    Color space                 : YUV
    Chroma subsampling          : 4:2:0
    Bit depth                   : 8 bits
    Scan type                   : Progressive
    Bits/(Pixel*Frame)          : 0.114
    Stream size                 : 3.49 GiB (86%)
    Writing library             : x264 core 157 r2935 545de2f
    Encoding settings           : cabac=1 / ref=4 / deblock=1:0:0 / analyse=0x3:0x133 / me=tesa / subme=11 / psy=1 / psy_rd=1.00:0.00 / mixed_ref=1 / me_range=24 / chroma_me=1 / trellis=2 / 8x8dct=1 / cqm=0 / deadzone=21,11 / fast_pskip=0 / chroma_qp_offset=-2 / threads=34 / lookahead_threads=8 / sliced_threads=0 / nr=0 / decimate=1 / interlaced=0 / bluray_compat=0 / constrained_intra=0 / bframes=16 / b_pyramid=2 / b_adapt=2 / b_bias=0 / direct=3 / weightb=1 / open_gop=0 / weightp=2 / keyint=240 / keyint_min=24 / scenecut=40 / intra_refresh=0 / rc_lookahead=60 / rc=crf / mbtree=1 / crf=20.0 / qcomp=0.60 / qpmin=0 / qpmax=69 / qpstep=4 / vbv_maxrate=62500 / vbv_bufsize=78125 / crf_max=0.0 / nal_hrd=none / filler=0 / ip_ratio=1.40 / aq=1:1.00
    Default                     : Yes
    Forced                      : No
    Color range                 : Limited
    Color primaries             : BT.709
    Transfer characteristics    : BT.709
    Matrix coefficients         : BT.709

    Audio #1
    ID                          : 2
    Format                      : AC-3
    Format/Info                 : Audio Coding 3
    Commercial name             : Dolby Digital
    Codec ID                    : A_AC3
    Duration                    : 1 h 28 min
    Bit rate mode               : Constant
    Bit rate                    : 256 kb/s
    Channel(s)                  : 6 channels
    Channel layout              : L R C LFE Ls Rs
    Sampling rate               : 44.1 kHz
    Frame rate                  : 28.711 FPS (1536 SPF)
    Bit depth                   : 16 bits
    Compression mode            : Lossy
    Stream size                 : 161 MiB (4%)
    Language                    : Spanish
    Service kind                : Complete Main
    Default                     : Yes
    Forced                      : No

    Audio #2
    ID                          : 3
    Format                      : AC-3
    Format/Info                 : Audio Coding 3
    Commercial name             : Dolby Digital
    Codec ID                    : A_AC3
    Duration                    : 1 h 28 min
    Bit rate mode               : Constant
    Bit rate                    : 640 kb/s
    Channel(s)                  : 6 channels
    Channel layout              : L R C LFE Ls Rs
    Sampling rate               : 48.0 kHz
    Frame rate                  : 31.250 FPS (1536 SPF)
    Bit depth                   : 16 bits
    Compression mode            : Lossy
    Stream size                 : 403 MiB (10%)
    Language                    : English
    Service kind                : Complete Main
    Default                     : No
    Forced                      : No

    Text
    ID                          : 4
    Format                      : UTF-8
    Codec ID                    : S_TEXT/UTF8
    Codec ID/Info               : UTF-8 Plain Text
    Duration                    : 1 h 27 min
    Bit rate                    : 58 b/s
    Count of elements           : 1100
    Stream size                 : 37.4 KiB (0%)
    Language                    : Spanish
    Default                     : No
    Forced                      : No

    Menu
    00:00:00.000                : :00:00:00.000
    00:04:50.707                : :00:04:50.707
    00:09:22.228                : :00:09:22.228
    00:15:52.785                : :00:15:52.785
    00:23:17.479                : :00:23:17.479
    00:30:28.493                : :00:30:28.493
    00:37:44.804                : :00:37:44.804
    00:44:14.318                : :00:44:14.277
    00:50:41.830                : :00:50:41.830
    00:58:58.577                : :00:58:58.577
    01:03:23.091                : :01:03:23.091
    01:09:11.689                : :01:09:11.689
    01:13:14.974                : :01:13:14.974
    01:21:06.570                : :01:21:06.487

  • Peso: 4.05 GiB

Sinopsis

Los felizmente casados Dan y Jody empiezan a observar algunos fenómenos extraños en su casa tras volver del hospital con su bebé, Aiden. Pero cuando el caos se apodera del trabajo de Jody como bailarina de ballet y de la carrera de Dan como investigador de monos, la pareja descubre que está siendo acosada por una presencia demoníaca. Juntos, con la ayuda de expertos cualificados y de numerosas cámaras, intentarán deshacerse del maléfico ser antes de que sea demasiado tarde.

Ficha técnica

Video trailer de la película

Enlaces de descarga

Rip de Bluray

Descargar Scary Movie 5 (2013) Full HD 1080p Latino




Aportes de DPeliculasHDmega la pass es:dpeliculashdmega.org Aportes de CinemaniaHD la pass es:cinemaniahdd.com
Guardado en : Comedia , FULL 1080p Plateadas

Películas relacionadas

descargar Scary Movie 5 (2013) Full HD 1080p Latino Full 1080p 1080p gratis, Scary Movie 5 (2013) Full HD 1080p Latino Full 1080p mega 1 link, Scary Movie 5 (2013) Full HD 1080p Latino Full 1080p pelicula completa, descargar Scary Movie 5 (2013) Full HD 1080p Latino Full 1080p gratis en mega.

Scary Movie 5 (2013) Full HD 1080p Latino pelicula full hd, Scary Movie 5 (2013) Full HD 1080p Latino mega latino, Scary Movie 5 (2013) Full HD 1080p Latino 4k latino, Scary Movie 5 (2013) Full HD 1080p Latino pelicula completa, Scary Movie 5 (2013) Full HD 1080p Latino descargar gratis, descargar Scary Movie 5 (2013) Full HD 1080p Latino pelicula latino, Scary Movie 5 (2013) Full HD 1080p Latino 1 link mega, Scary Movie 5 (2013) Full HD 1080p Latino 1 link google drive, Scary Movie 5 (2013) Full HD 1080p Latino hd 1080p latino.
Comentarios 1
  • ocpgaiden - 02 junio, 2020

    Gracias por las 5 peliculas de Scary Movie Full HD, saludos