×

¿Problemas para descargar con Mozilla, EDGE? Deshabilita la opción "Abrir vinculos en una pestaña nueva" tal como lo muestra ésta imagen.

Scary Movie 4 (2006) REMUX 1080p Latino

462 vistas

Información de Scary Movie 4 (2006) REMUX 1080p Latino

Datos de la película

  • Calidad: Full 1080p
  • Audio: Español Latino AC3 2.0 DVD - Ingles DTS 5.1 BLURAY
  • Subtitulos: Español Latino SRT
  • Resolución: 1920x1080p
  • Formato: MKV
  • Codec: H.264
  • Encoder: Dracarys
  • Mediainfo: Clic para Mostrar Datos Ver
  • Format                      : Matroska
    Format version              : Version 4
    File size                   : 18.1 GiB
    Duration                    : 1 h 29 min
    Overall bit rate mode       : Variable
    Overall bit rate            : 29.0 Mb/s
    Movie name                  : CinemaniaHDD.net
    Encoded date                : UTC 2020-04-30 03:49:50
    Writing application         : mkvmerge v38.0.0 ('The Silent Type') 64-bit
    Writing library             : libebml v1.3.9 + libmatroska v1.5.2

    Video
    ID                          : 1
    Format                      : MPEG Video
    Format version              : Version 2
    Format profile              : Main@High
    Format settings             : BVOP
    Format settings, BVOP       : Yes
    Format settings, Matrix     : Default
    Format settings, GOP        : M=3, N=12
    Codec ID                    : V_MPEG2
    Codec ID/Info               : MPEG 1 or 2 Video
    Duration                    : 1 h 29 min
    Bit rate mode               : Variable
    Bit rate                    : 26.5 Mb/s
    Maximum bit rate            : 31.0 Mb/s
    Width                       : 1 920 pixels
    Height                      : 1 080 pixels
    Display aspect ratio        : 16:9
    Frame rate mode             : Constant
    Frame rate                  : 23.976 (24000/1001) FPS
    Color space                 : YUV
    Chroma subsampling          : 4:2:0
    Bit depth                   : 8 bits
    Scan type                   : Progressive
    Compression mode            : Lossy
    Bits/(Pixel*Frame)          : 0.534
    Time code of first frame    : 00:59:59:00
    Time code source            : Group of pictures header
    GOP, Open/Closed            : Open
    GOP, Open/Closed of first f : Closed
    Stream size                 : 16.6 GiB (92%)
    Default                     : Yes
    Forced                      : No

    Audio #1
    ID                          : 2
    Format                      : AC-3
    Format/Info                 : Audio Coding 3
    Commercial name             : Dolby Digital
    Codec ID                    : A_AC3
    Duration                    : 1 h 29 min
    Bit rate mode               : Constant
    Bit rate                    : 192 kb/s
    Channel(s)                  : 2 channels
    Channel layout              : L R
    Sampling rate               : 48.0 kHz
    Frame rate                  : 31.250 FPS (1536 SPF)
    Bit depth                   : 16 bits
    Compression mode            : Lossy
    Stream size                 : 123 MiB (1%)
    Language                    : Spanish
    Service kind                : Complete Main
    Default                     : Yes
    Forced                      : No

    Audio #2
    ID                          : 3
    Format                      : DTS XLL
    Format/Info                 : Digital Theater Systems
    Commercial name             : DTS-HD Master Audio
    Codec ID                    : A_DTS
    Duration                    : 1 h 29 min
    Bit rate mode               : Variable
    Bit rate                    : 2 250 kb/s
    Channel(s)                  : 6 channels
    Channel layout              : C L R Ls Rs LFE
    Sampling rate               : 48.0 kHz
    Frame rate                  : 93.750 FPS (512 SPF)
    Bit depth                   : 16 bits
    Compression mode            : Lossless
    Stream size                 : 1.41 GiB (8%)
    Language                    : English
    Default                     : No
    Forced                      : No

    Text #1
    ID                          : 4
    Format                      : UTF-8
    Codec ID                    : S_TEXT/UTF8
    Codec ID/Info               : UTF-8 Plain Text
    Duration                    : 1 h 19 min
    Bit rate                    : 52 b/s
    Count of elements           : 1007
    Stream size                 : 30.5 KiB (0%)
    Language                    : Spanish
    Default                     : No
    Forced                      : No

    Text #2
    ID                          : 5
    Format                      : PGS
    Muxing mode                 : zlib
    Codec ID                    : S_HDMV/PGS
    Codec ID/Info               : Picture based subtitle format used on BDs/HD-DVDs
    Duration                    : 1 h 19 min
    Bit rate                    : 20.0 kb/s
    Count of elements           : 2015
    Stream size                 : 11.4 MiB (0%)
    Language                    : Spanish
    Default                     : No
    Forced                      : No

    Menu
    00:00:00.000                : en:00:00:00.000
    00:04:22.387                : en:00:04:22.387
    00:08:19.749                : en:00:08:19.749
    00:15:20.670                : en:00:15:20.670
    00:19:50.523                : en:00:19:50.523
    00:23:00.129                : en:00:23:00.129
    00:26:37.513                : en:00:26:37.513
    00:31:38.021                : en:00:31:38.021
    00:39:38.710                : en:00:39:38.710
    00:46:34.709                : en:00:46:34.709
    00:54:26.972                : en:00:54:26.972
    00:57:37.788                : en:00:57:37.788
    01:04:04.799                : en:01:04:04.799
    01:08:52.545                : en:01:08:52.545
    01:16:33.005                : en:01:16:33.005
    01:18:04.513                : en:01:18:04.513
    01:20:50.054                : en:01:20:50.054

  • Peso: 18.1 GiB

Sinopsis

Una nueva entrega de la franquicia que parodia los últimos títulos del cine americano. Esta vez, la ingenua Cindy Campbell (Anna Faris) intenta hacer carrera en la atención sanitaria a domicilio, y encuentra trabajo con una horripilante anciana que vive en una horripilante casa embrujada por una presencia fantasmal. Si a esto le añades un vecino guapetón y la amenaza de unos alienígenas que quieren dominar la tierra… el pelo rubísimo de Cindy se erizará presa del miedo más electrizante. Nuestra valiente heroína vuelve a sumergirse en la acción más enloquecida en su intento de descifrar los extraños mensajes que le llegan del más allá. Pero eso no le impide seguir buscando el amor en los sitios más inusitados y de salvar el mundo de la destrucción masiva.

Ficha técnica

Video trailer de la película

Enlaces de descarga

Rip de Bluray

Descargar Scary Movie 4 (2006) REMUX 1080p Latino




Aportes de DPeliculasHDmega la pass es:dpeliculashdmega.org Aportes de CinemaniaHD la pass es:cinemaniahdd.com
Guardado en : Comedia , Remux

Películas relacionadas

descargar Scary Movie 4 (2006) REMUX 1080p Latino Full 1080p 1080p gratis, Scary Movie 4 (2006) REMUX 1080p Latino Full 1080p mega 1 link, Scary Movie 4 (2006) REMUX 1080p Latino Full 1080p pelicula completa, descargar Scary Movie 4 (2006) REMUX 1080p Latino Full 1080p gratis en mega.

Scary Movie 4 (2006) REMUX 1080p Latino pelicula full hd, Scary Movie 4 (2006) REMUX 1080p Latino mega latino, Scary Movie 4 (2006) REMUX 1080p Latino 4k latino, Scary Movie 4 (2006) REMUX 1080p Latino pelicula completa, Scary Movie 4 (2006) REMUX 1080p Latino descargar gratis, descargar Scary Movie 4 (2006) REMUX 1080p Latino pelicula latino, Scary Movie 4 (2006) REMUX 1080p Latino 1 link mega, Scary Movie 4 (2006) REMUX 1080p Latino 1 link google drive, Scary Movie 4 (2006) REMUX 1080p Latino hd 1080p latino.
Comentarios 3
  • jose - 28 julio, 2020

    buenas noches la pelicula de scary movie 4 el paste publico la publicidad sol manda a google no lleva al catcha

    • Dracarys - 28 julio, 2020

      Usa un VPN y cambia de pais para que te cargue bien la publicidad

    • Marck - 28 julio, 2020

      Una de las soluciones es borrar el cache de tu pc