×

¿Problemas para descargar con Mozilla, EDGE? Deshabilita la opción "Abrir vinculos en una pestaña nueva" tal como lo muestra ésta imagen.

Scary Movie 4 (2006) Full HD 1080p Latino

543 vistas

Información de Scary Movie 4 (2006) Full HD 1080p Latino

Datos de la película

  • Calidad: Full 1080p
  • Audio: Español Latino AC3 2.0 DVD - Ingles AC3 5.1 BLURAY
  • Subtitulos: Español Latino SRT
  • Resolución: 1920x1080p
  • Formato: MKV
  • Codec: H.264
  • Encoder: Dracarys
  • Mediainfo: Clic para Mostrar Datos Ver
  • Format                      : Matroska
    Format version              : Version 4
    File size                   : 5.59 GiB
    Duration                    : 1 h 29 min
    Overall bit rate            : 8 939 kb/s
    Movie name                  : CinemaniaHDD.net
    Encoded date                : UTC 2020-05-01 04:20:25
    Writing application         : mkvmerge v38.0.0 ('The Silent Type') 64-bit
    Writing library             : libebml v1.3.9 + libmatroska v1.5.2 / Lavf58.20.100

    Video
    ID                          : 1
    Format                      : AVC
    Format/Info                 : Advanced Video Codec
    Format profile              : High@L4.1
    Format settings             : CABAC / 4 Ref Frames
    Format settings, CABAC      : Yes
    Format settings, ReFrames   : 4 frames
    Codec ID                    : V_MPEG4/ISO/AVC
    Duration                    : 1 h 29 min
    Bit rate                    : 8 105 kb/s
    Width                       : 1 920 pixels
    Height                      : 1 080 pixels
    Display aspect ratio        : 16:9
    Frame rate mode             : Constant
    Frame rate                  : 23.976 (24000/1001) FPS
    Color space                 : YUV
    Chroma subsampling          : 4:2:0
    Bit depth                   : 8 bits
    Scan type                   : Progressive
    Bits/(Pixel*Frame)          : 0.163
    Stream size                 : 5.07 GiB (91%)
    Writing library             : x264 core 157 r2935 545de2f
    Encoding settings           : cabac=1 / ref=4 / deblock=1:0:0 / analyse=0x3:0x133 / me=tesa / subme=11 / psy=1 / psy_rd=1.00:0.00 / mixed_ref=1 / me_range=24 / chroma_me=1 / trellis=2 / 8x8dct=1 / cqm=0 / deadzone=21,11 / fast_pskip=0 / chroma_qp_offset=-2 / threads=34 / lookahead_threads=8 / sliced_threads=0 / nr=0 / decimate=1 / interlaced=0 / bluray_compat=0 / constrained_intra=0 / bframes=16 / b_pyramid=2 / b_adapt=2 / b_bias=0 / direct=3 / weightb=1 / open_gop=0 / weightp=2 / keyint=240 / keyint_min=24 / scenecut=40 / intra_refresh=0 / rc_lookahead=60 / rc=crf / mbtree=1 / crf=20.0 / qcomp=0.60 / qpmin=0 / qpmax=69 / qpstep=4 / vbv_maxrate=62500 / vbv_bufsize=78125 / crf_max=0.0 / nal_hrd=none / filler=0 / ip_ratio=1.40 / aq=1:1.00
    Default                     : Yes
    Forced                      : No
    Color range                 : Limited
    Color primaries             : BT.709
    Transfer characteristics    : BT.709
    Matrix coefficients         : BT.709

    Audio #1
    ID                          : 2
    Format                      : AC-3
    Format/Info                 : Audio Coding 3
    Commercial name             : Dolby Digital
    Codec ID                    : A_AC3
    Duration                    : 1 h 29 min
    Bit rate mode               : Constant
    Bit rate                    : 192 kb/s
    Channel(s)                  : 2 channels
    Channel layout              : L R
    Sampling rate               : 48.0 kHz
    Frame rate                  : 31.250 FPS (1536 SPF)
    Bit depth                   : 16 bits
    Compression mode            : Lossy
    Stream size                 : 123 MiB (2%)
    Language                    : Spanish
    Service kind                : Complete Main
    Default                     : Yes
    Forced                      : No

    Audio #2
    ID                          : 3
    Format                      : AC-3
    Format/Info                 : Audio Coding 3
    Commercial name             : Dolby Digital
    Codec ID                    : A_AC3
    Duration                    : 1 h 29 min
    Bit rate mode               : Constant
    Bit rate                    : 640 kb/s
    Channel(s)                  : 6 channels
    Channel layout              : L R C LFE Ls Rs
    Sampling rate               : 48.0 kHz
    Frame rate                  : 31.250 FPS (1536 SPF)
    Bit depth                   : 16 bits
    Compression mode            : Lossy
    Stream size                 : 410 MiB (7%)
    Language                    : English
    Service kind                : Complete Main
    Default                     : No
    Forced                      : No

    Text
    ID                          : 4
    Format                      : UTF-8
    Codec ID                    : S_TEXT/UTF8
    Codec ID/Info               : UTF-8 Plain Text
    Duration                    : 1 h 19 min
    Bit rate                    : 52 b/s
    Count of elements           : 1007
    Stream size                 : 30.5 KiB (0%)
    Language                    : Spanish
    Default                     : No
    Forced                      : No

    Menu
    00:00:00.000                : :00:00:00.000
    00:04:22.387                : :00:04:22.387
    00:08:19.749                : :00:08:19.749
    00:15:20.753                : :00:15:20.670
    00:19:50.523                : :00:19:50.523
    00:23:00.212                : :00:23:00.129
    00:26:37.554                : :00:26:37.513
    00:31:38.105                : :00:31:38.021
    00:39:38.710                : :00:39:38.710
    00:46:34.792                : :00:46:34.709
    00:54:27.014                : :00:54:26.972
    00:57:37.829                : :00:57:37.788
    01:04:04.841                : :01:04:04.799
    01:08:52.629                : :01:08:52.545
    01:16:33.089                : :01:16:33.005
    01:18:04.555                : :01:18:04.513
    01:20:50.095                : :01:20:50.054

  • Peso: 5.59 GiB

Sinopsis

Una nueva entrega de la franquicia que parodia los últimos títulos del cine americano. Esta vez, la ingenua Cindy Campbell (Anna Faris) intenta hacer carrera en la atención sanitaria a domicilio, y encuentra trabajo con una horripilante anciana que vive en una horripilante casa embrujada por una presencia fantasmal. Si a esto le añades un vecino guapetón y la amenaza de unos alienígenas que quieren dominar la tierra… el pelo rubísimo de Cindy se erizará presa del miedo más electrizante. Nuestra valiente heroína vuelve a sumergirse en la acción más enloquecida en su intento de descifrar los extraños mensajes que le llegan del más allá. Pero eso no le impide seguir buscando el amor en los sitios más inusitados y de salvar el mundo de la destrucción masiva.

Ficha técnica

Video trailer de la película

Enlaces de descarga

Rip de Bluray

Descargar Scary Movie 4 (2006) Full HD 1080p Latino




Aportes de DPeliculasHDmega la pass es:dpeliculashdmega.org Aportes de CinemaniaHD la pass es:cinemaniahdd.com
Guardado en : Comedia , FULL 1080p Plateadas

Películas relacionadas

  • Hot Summer Nights (2017) AMZN WEB-DL 1080p Latino

    Hot Summer Nights (2017) AMZN WEB-DL 1080p Latino

    2018
    Hot Summer Nights (2017) AMZN WEB-DL 1080p Latino

    1h 47m 2018

    Daniel es un tímido adolescente que comienza a vender marihuana, entrando en un mundo tentador pero...

    Director: Stephen W. Moore

    Género: Comedia

    Actores: Zack Shires

  • Wire Room (2022) PLACEBO Full HD 1080p Latino

    Wire Room (2022) PLACEBO Full HD 1080p Latino

    2022
    Wire Room (2022) PLACEBO Full HD 1080p Latino

    1h 37m 2022

    Descargar Wire Room (2022) PLACEBO Full HD 1080p Latino. Mientras está de servicio en la sala de cables,...

    Director: Matt Eskandari

    Género: Acción

    Actores: Texas Battle

  • Alarido (2022) PLACEBO Full HD 1080p Latino

    Alarido (2022) PLACEBO Full HD 1080p Latino

    2022
    Alarido (2022) PLACEBO Full HD 1080p Latino

    1h 29m 2022

    Descargar Alarido (2022) PLACEBO Full HD 1080p Latino. Una joven madre soltera es cautiva junto con sus...

    Director: D.J. Caruso

    Género: FULL 1080p Plateadas

    Actores: Vincent Gallo

descargar Scary Movie 4 (2006) Full HD 1080p Latino Full 1080p 1080p gratis, Scary Movie 4 (2006) Full HD 1080p Latino Full 1080p mega 1 link, Scary Movie 4 (2006) Full HD 1080p Latino Full 1080p pelicula completa, descargar Scary Movie 4 (2006) Full HD 1080p Latino Full 1080p gratis en mega.

Scary Movie 4 (2006) Full HD 1080p Latino pelicula full hd, Scary Movie 4 (2006) Full HD 1080p Latino mega latino, Scary Movie 4 (2006) Full HD 1080p Latino 4k latino, Scary Movie 4 (2006) Full HD 1080p Latino pelicula completa, Scary Movie 4 (2006) Full HD 1080p Latino descargar gratis, descargar Scary Movie 4 (2006) Full HD 1080p Latino pelicula latino, Scary Movie 4 (2006) Full HD 1080p Latino 1 link mega, Scary Movie 4 (2006) Full HD 1080p Latino 1 link google drive, Scary Movie 4 (2006) Full HD 1080p Latino hd 1080p latino.
Comentarios 1
  • ocpgaiden - 02 junio, 2020

    Gracias y saludos