×

¿Problemas para descargar con Mozilla, EDGE? Deshabilita la opción "Abrir vinculos en una pestaña nueva" tal como lo muestra ésta imagen.

Scary Movie (2000) REMUX 1080p Latino – CMHDD

80 vistas

Información de Scary Movie (2000) REMUX 1080p Latino – CMHDD

Datos de la película

  • Calidad: Full 1080p
  • Audio: Español Latino AC3 2.0 BLURAY - Ingles DTS 5.1 BLURAY
  • Subtitulos: Español Latino SRT- FORZADOS SRT
  • Resolución:
  • Formato:
  • Codec: H.264
  • Encoder: Dracarys
  • Mediainfo: Clic para Mostrar Datos Ver
  • Format                      : Matroska
    Format version              : Version 4
    File size                   : 13.6 GiB
    Duration                    : 1 h 28 min
    Overall bit rate mode       : Variable
    Overall bit rate            : 22.0 Mb/s
    Movie name                  : Scary Movie (2000) REMUX 1080p Latino - CMHDD
    Encoded date                : UTC 2024-01-12 11:54:52
    Writing application         : mkvmerge v47.0.0 ('Black Flag') 64-bit
    Writing library             : libebml v1.3.10 + libmatroska v1.5.2

    Video
    ID                          : 1
    Format                      : AVC
    Format/Info                 : Advanced Video Codec
    Format profile              : High@L4.1
    Format settings             : CABAC / 4 Ref Frames
    Format settings, CABAC      : Yes
    Format settings, Reference  : 4 frames
    Codec ID                    : V_MPEG4/ISO/AVC
    Duration                    : 1 h 28 min
    Bit rate mode               : Variable
    Bit rate                    : 20.0 Mb/s
    Maximum bit rate            : 30.0 Mb/s
    Width                       : 1 920 pixels
    Height                      : 1 080 pixels
    Display aspect ratio        : 16:9
    Frame rate mode             : Constant
    Frame rate                  : 23.976 (24000/1001) FPS
    Standard                    : NTSC
    Color space                 : YUV
    Chroma subsampling          : 4:2:0
    Bit depth                   : 8 bits
    Scan type                   : Progressive
    Bits/(Pixel*Frame)          : 0.402
    Stream size                 : 12.3 GiB (91%)
    Language                    : English
    Default                     : Yes
    Forced                      : No
    Color range                 : Limited
    Color primaries             : BT.709
    Transfer characteristics    : BT.709
    Matrix coefficients         : BT.709

    Audio #1
    ID                          : 2
    Format                      : AC-3
    Format/Info                 : Audio Coding 3
    Commercial name             : Dolby Digital
    Codec ID                    : A_AC3
    Duration                    : 49 min 29 s
    Bit rate mode               : Constant
    Bit rate                    : 192 kb/s
    Channel(s)                  : 2 channels
    Channel layout              : L R
    Sampling rate               : 48.0 kHz
    Frame rate                  : 31.250 FPS (1536 SPF)
    Compression mode            : Lossy
    Stream size                 : 68.0 MiB (0%)
    Language                    : Spanish
    Service kind                : Complete Main
    Default                     : Yes
    Forced                      : No

    Audio #2
    ID                          : 3
    Format                      : DTS XLL
    Format/Info                 : Digital Theater Systems
    Commercial name             : DTS-HD Master Audio
    Codec ID                    : A_DTS
    Duration                    : 1 h 28 min
    Bit rate mode               : Variable
    Bit rate                    : 1 899 kb/s
    Channel(s)                  : 6 channels
    Channel layout              : C L R Ls Rs LFE
    Sampling rate               : 48.0 kHz
    Frame rate                  : 93.750 FPS (512 SPF)
    Bit depth                   : 16 bits
    Compression mode            : Lossless
    Stream size                 : 1.17 GiB (9%)
    Language                    : English
    Default                     : No
    Forced                      : No

    Text #1
    ID                          : 4
    Format                      : UTF-8
    Codec ID                    : S_TEXT/UTF8
    Codec ID/Info               : UTF-8 Plain Text
    Duration                    : 46 min 15 s
    Bit rate                    : 1 b/s
    Frame rate                  : 0.007 FPS
    Count of elements           : 19
    Stream size                 : 392 Bytes (0%)
    Title                       : Forzados
    Language                    : Spanish
    Default                     : Yes
    Forced                      : No

    Text #2
    ID                          : 5
    Format                      : UTF-8
    Codec ID                    : S_TEXT/UTF8
    Codec ID/Info               : UTF-8 Plain Text
    Duration                    : 49 min 10 s
    Bit rate                    : 67 b/s
    Frame rate                  : 0.233 FPS
    Count of elements           : 688
    Stream size                 : 24.4 KiB (0%)
    Language                    : Spanish
    Default                     : No
    Forced                      : No

     

  • Peso: 13.6 GiB

Sinopsis

Tras el asesinato de una bella estudiante, un grupo de adolescentes descubren que hay un asesino entre ellas. La heroína, Cindy, y su grupo de desconcertantes amigos, serán aterrorizados por un singular psicópata enmascarado que pretende vengarse de ellos por haberlo atropellado el pasado Halloween.

Ficha técnica

Video trailer de la película

Enlaces de descarga

Rip de Bluray

Descargar Scary Movie (2000) REMUX 1080p Latino – CMHDD




Aportes de DPeliculasHDmega la pass es:dpeliculashdmega.org Aportes de CinemaniaHD la pass es:cinemaniahdd.com Aportes recientes:cinemaniahdd.net
Guardado en : Comedia

Películas relacionadas

  • Nada que ver (2023) WEB-DL 1080p Latino

    Nada que ver (2023) WEB-DL 1080p Latino

    2023
    Nada que ver (2023) WEB-DL 1080p Latino

    1h 30m 2023

    Descargar Nada que ver (2023) WEB-DL 1080p Latino. Después de que Carlos tiene la tarea de cuidar a...

    Director: Kenya Marquez

    Género: Comedia

    Actores: Rebecca Jones

  • El Roomie (2024) WEB-DL 1080p Latino

    El Roomie (2024) WEB-DL 1080p Latino

    2024
    El Roomie (2024) WEB-DL 1080p Latino

    1h 39m 2024

    Descargar El Roomie (2024) WEB-DL 1080p Latino. Vivi se ve obligada a buscar un roomie para pagar la...

    Director: Pedro Pablo Ibarra

    Género: Comedia

    Actores: Victoria Ruffo

  • Lisa Frankenstein (2024) HD 1080p Latino

    Lisa Frankenstein (2024) HD 1080p Latino

    2024
    Lisa Frankenstein (2024) HD 1080p Latino

    1h 42m 2024

    Descargar Lisa Frankenstein (2024) HD 1080p Latino. En 1989, una impopular chica de secundaria llamada...

    Director: Zelda Williams

    Género: Comedia

    Actores: Wendy Miklovic

descargar Scary Movie (2000) REMUX 1080p Latino – CMHDD Full 1080p 1080p gratis, Scary Movie (2000) REMUX 1080p Latino – CMHDD Full 1080p mega 1 link, Scary Movie (2000) REMUX 1080p Latino – CMHDD Full 1080p pelicula completa, descargar Scary Movie (2000) REMUX 1080p Latino – CMHDD Full 1080p gratis en mega.

Scary Movie (2000) REMUX 1080p Latino – CMHDD pelicula full hd, Scary Movie (2000) REMUX 1080p Latino – CMHDD mega latino, Scary Movie (2000) REMUX 1080p Latino – CMHDD 4k latino, Scary Movie (2000) REMUX 1080p Latino – CMHDD pelicula completa, Scary Movie (2000) REMUX 1080p Latino – CMHDD descargar gratis, descargar Scary Movie (2000) REMUX 1080p Latino – CMHDD pelicula latino, Scary Movie (2000) REMUX 1080p Latino – CMHDD 1 link mega, Scary Movie (2000) REMUX 1080p Latino – CMHDD 1 link google drive, Scary Movie (2000) REMUX 1080p Latino – CMHDD hd 1080p latino.
Comentarios 0