×

¿Problemas para descargar con Mozilla, EDGE? Deshabilita la opción "Abrir vinculos en una pestaña nueva" tal como lo muestra ésta imagen.

Scary Movie 2 (2001) REMUX 1080p Latino – CMHDD

68 vistas

Información de Scary Movie 2 (2001) REMUX 1080p Latino – CMHDD

Datos de la película

  • Calidad: Full 1080p
  • Audio: Español Latino AC3 2.0 BLURAY - Ingles DTS 5.1 BLURAY
  • Subtitulos: Español Latino PGS
  • Resolución: 19201080p
  • Formato: MKV
  • Codec: H.264
  • Encoder: Dracarys
  • Mediainfo: Clic para Mostrar Datos Ver
  • Format                      : Matroska
    Format version              : Version 4
    File size                   : 13.5 GiB
    Duration                    : 1 h 22 min
    Overall bit rate mode       : Variable
    Overall bit rate            : 23.3 Mb/s
    Movie name                  : Scary Movie 2 (2001) REMUX 1080p Latino - CMHDD
    Encoded date                : UTC 2024-01-12 11:56:26
    Writing application         : mkvmerge v47.0.0 ('Black Flag') 64-bit
    Writing library             : libebml v1.3.10 + libmatroska v1.5.2

    Video
    ID                          : 1
    Format                      : AVC
    Format/Info                 : Advanced Video Codec
    Format profile              : High@L4.1
    Format settings             : CABAC / 3 Ref Frames
    Format settings, CABAC      : Yes
    Format settings, Reference  : 3 frames
    Codec ID                    : V_MPEG4/ISO/AVC
    Duration                    : 1 h 22 min
    Bit rate mode               : Variable
    Bit rate                    : 20.0 Mb/s
    Maximum bit rate            : 35.0 Mb/s
    Width                       : 1 920 pixels
    Height                      : 1 080 pixels
    Display aspect ratio        : 16:9
    Frame rate mode             : Constant
    Frame rate                  : 23.976 (24000/1001) FPS
    Standard                    : NTSC
    Color space                 : YUV
    Chroma subsampling          : 4:2:0
    Bit depth                   : 8 bits
    Scan type                   : Progressive
    Bits/(Pixel*Frame)          : 0.402
    Stream size                 : 11.5 GiB (86%)
    Language                    : English
    Default                     : Yes
    Forced                      : No
    Color range                 : Limited
    Color primaries             : BT.709
    Transfer characteristics    : BT.709
    Matrix coefficients         : BT.709

    Audio #1
    ID                          : 2
    Format                      : AC-3
    Format/Info                 : Audio Coding 3
    Commercial name             : Dolby Digital
    Codec ID                    : A_AC3
    Duration                    : 1 h 22 min
    Bit rate mode               : Constant
    Bit rate                    : 256 kb/s
    Channel(s)                  : 2 channels
    Channel layout              : L R
    Sampling rate               : 48.0 kHz
    Frame rate                  : 31.250 FPS (1536 SPF)
    Compression mode            : Lossy
    Stream size                 : 151 MiB (1%)
    Language                    : Spanish
    Service kind                : Complete Main
    Default                     : Yes
    Forced                      : No

    Audio #2
    ID                          : 3
    Format                      : AC-3
    Format/Info                 : Audio Coding 3
    Commercial name             : Dolby Digital
    Codec ID                    : A_AC3
    Duration                    : 1 h 22 min
    Bit rate mode               : Constant
    Bit rate                    : 640 kb/s
    Channel(s)                  : 6 channels
    Channel layout              : L R C LFE Ls Rs
    Sampling rate               : 48.0 kHz
    Frame rate                  : 31.250 FPS (1536 SPF)
    Compression mode            : Lossy
    Delay relative to video     : -8 s 0 ms
    Stream size                 : 378 MiB (3%)
    Language                    : English
    Service kind                : Complete Main
    Default                     : No
    Forced                      : No

    Audio #3
    ID                          : 4
    Format                      : DTS XLL
    Format/Info                 : Digital Theater Systems
    Commercial name             : DTS-HD Master Audio
    Codec ID                    : A_DTS
    Duration                    : 1 h 22 min
    Bit rate mode               : Variable
    Bit rate                    : 2 477 kb/s
    Channel(s)                  : 6 channels
    Channel layout              : C L R Ls Rs LFE
    Sampling rate               : 48.0 kHz
    Frame rate                  : 93.750 FPS (512 SPF)
    Bit depth                   : 24 bits
    Compression mode            : Lossless
    Delay relative to video     : 50 ms
    Stream size                 : 1.43 GiB (11%)
    Language                    : English
    Default                     : No
    Forced                      : No

    Text #1
    ID                          : 5
    Format                      : UTF-8
    Codec ID                    : S_TEXT/UTF8
    Codec ID/Info               : UTF-8 Plain Text
    Duration                    : 1 h 14 min
    Bit rate                    : 53 b/s
    Frame rate                  : 0.242 FPS
    Count of elements           : 1077
    Stream size                 : 29.1 KiB (0%)
    Language                    : Spanish
    Default                     : No
    Forced                      : No

    Text #2
    ID                          : 6
    Format                      : PGS
    Muxing mode                 : zlib
    Codec ID                    : S_HDMV/PGS
    Codec ID/Info               : Picture based subtitle format used on BDs/HD-DVDs
    Duration                    : 1 h 14 min
    Bit rate                    : 34.3 kb/s
    Frame rate                  : 0.484 FPS
    Count of elements           : 2154
    Stream size                 : 18.2 MiB (0%)
    Language                    : Spanish
    Default                     : No
    Forced                      : No

    Menu
    00:00:00.000                : en:(01)00:00:00:000
    00:07:33.619                : en:(02)00:07:33:619
    00:14:24.113                : en:(03)00:14:24:113
    00:21:36.420                : en:(04)00:21:36:420
    00:26:42.559                : en:(05)00:26:42:559
    00:31:25.758                : en:(06)00:31:25:758
    00:34:00.038                : en:(07)00:34:00:038
    00:38:21.632                : en:(08)00:38:21:632
    00:40:10.574                : en:(09)00:40:10:574
    00:42:30.756                : en:(10)00:42:30:756
    00:48:05.632                : en:(11)00:48:05:632
    00:51:01.183                : en:(12)00:51:01:183
    00:54:49.160                : en:(13)00:54:49:160
    00:56:41.106                : en:(14)00:56:41:106
    01:00:57.654                : en:(15)01:00:57:654
    01:04:20.022                : en:(16)01:04:20:022
    01:06:21.894                : en:(17)01:06:21:894
    01:10:38.484                : en:(18)01:10:38:484
    01:14:40.184                : en:(19)01:14:40:184
    01:22:26.942                : en:(20)01:22:26:942

     

  • Peso: 13.5 GiB

Sinopsis

En esta ocasión los hermanos Wayans empiezan la historia con una satírica parodia de El Exorcista, mostrando a James Woods en el papel de un cura poco convencional, el padre McFelly, ocupado en salvar a una Natasha Lyonne de un espíritu de otro mundo. Entonces, retomando la historia donde la dejaron, los hermanos Wayans se vuelven a reunir de forma cómica con la heroína Cindy Campbell, convertida ahora en una buena estudiante universitaria. Un profesor loco la recluta a ella y a su grupo de compañeros deseosos de vivir aventuras y nuevas experiencias, para una salida de fin de semana bajo el pretexto de realizar un experimento científico. Mientras se desarollan las actividades del fin de semana, las continuas sorpresas mantienen la diversión siempre en marcha.

Ficha técnica

Video trailer de la película

Enlaces de descarga

Rip de Bluray

Descargar Scary Movie 2 (2001) REMUX 1080p Latino – CMHDD




Aportes de DPeliculasHDmega la pass es:dpeliculashdmega.org Aportes de CinemaniaHD la pass es:cinemaniahdd.com Aportes recientes:cinemaniahdd.net
Guardado en : Comedia

Películas relacionadas

  • Nada que ver (2023) WEB-DL 1080p Latino

    Nada que ver (2023) WEB-DL 1080p Latino

    2023
    Nada que ver (2023) WEB-DL 1080p Latino

    1h 30m 2023

    Descargar Nada que ver (2023) WEB-DL 1080p Latino. Después de que Carlos tiene la tarea de cuidar a...

    Director: Kenya Marquez

    Género: Comedia

    Actores: Rebecca Jones

  • El Roomie (2024) WEB-DL 1080p Latino

    El Roomie (2024) WEB-DL 1080p Latino

    2024
    El Roomie (2024) WEB-DL 1080p Latino

    1h 39m 2024

    Descargar El Roomie (2024) WEB-DL 1080p Latino. Vivi se ve obligada a buscar un roomie para pagar la...

    Director: Pedro Pablo Ibarra

    Género: Comedia

    Actores: Victoria Ruffo

  • Lisa Frankenstein (2024) HD 1080p Latino

    Lisa Frankenstein (2024) HD 1080p Latino

    2024
    Lisa Frankenstein (2024) HD 1080p Latino

    1h 42m 2024

    Descargar Lisa Frankenstein (2024) HD 1080p Latino. En 1989, una impopular chica de secundaria llamada...

    Director: Zelda Williams

    Género: Comedia

    Actores: Wendy Miklovic

descargar Scary Movie 2 (2001) REMUX 1080p Latino – CMHDD Full 1080p 1080p gratis, Scary Movie 2 (2001) REMUX 1080p Latino – CMHDD Full 1080p mega 1 link, Scary Movie 2 (2001) REMUX 1080p Latino – CMHDD Full 1080p pelicula completa, descargar Scary Movie 2 (2001) REMUX 1080p Latino – CMHDD Full 1080p gratis en mega.

Scary Movie 2 (2001) REMUX 1080p Latino – CMHDD pelicula full hd, Scary Movie 2 (2001) REMUX 1080p Latino – CMHDD mega latino, Scary Movie 2 (2001) REMUX 1080p Latino – CMHDD 4k latino, Scary Movie 2 (2001) REMUX 1080p Latino – CMHDD pelicula completa, Scary Movie 2 (2001) REMUX 1080p Latino – CMHDD descargar gratis, descargar Scary Movie 2 (2001) REMUX 1080p Latino – CMHDD pelicula latino, Scary Movie 2 (2001) REMUX 1080p Latino – CMHDD 1 link mega, Scary Movie 2 (2001) REMUX 1080p Latino – CMHDD 1 link google drive, Scary Movie 2 (2001) REMUX 1080p Latino – CMHDD hd 1080p latino.
Comentarios 0