×

¿Problemas para descargar con Mozilla, EDGE? Deshabilita la opción "Abrir vinculos en una pestaña nueva" tal como lo muestra ésta imagen.

Scary Movie 2 (2001) Full HD 1080p Latino

476 vistas

Información de Scary Movie 2 (2001) Full HD 1080p Latino

Datos de la película

  • Calidad: Full 1080p
  • Audio: Español Latino AC3 2.0 DVD - Ingles AC3 5.1 BLURAY
  • Subtitulos: Español Latino SRT
  • Resolución: 1920x1080p
  • Formato: MKV
  • Codec: H.264
  • Encoder: Dracarys
  • Mediainfo: Clic para Mostrar Datos Ver
  • Format                      : Matroska
    Format version              : Version 4
    File size                   : 5.19 GiB
    Duration                    : 1 h 22 min
    Overall bit rate            : 8 988 kb/s
    Movie name                  : CinemaniaHDD.net
    Encoded date                : UTC 2020-05-01 04:09:39
    Writing application         : mkvmerge v38.0.0 ('The Silent Type') 64-bit
    Writing library             : libebml v1.3.9 + libmatroska v1.5.2 / Lavf58.20.100

    Video
    ID                          : 1
    Format                      : AVC
    Format/Info                 : Advanced Video Codec
    Format profile              : High@L4.1
    Format settings             : CABAC / 4 Ref Frames
    Format settings, CABAC      : Yes
    Format settings, ReFrames   : 4 frames
    Codec ID                    : V_MPEG4/ISO/AVC
    Duration                    : 1 h 22 min
    Bit rate                    : 8 155 kb/s
    Width                       : 1 920 pixels
    Height                      : 1 080 pixels
    Display aspect ratio        : 16:9
    Frame rate mode             : Constant
    Frame rate                  : 23.976 (24000/1001) FPS
    Color space                 : YUV
    Chroma subsampling          : 4:2:0
    Bit depth                   : 8 bits
    Scan type                   : Progressive
    Bits/(Pixel*Frame)          : 0.164
    Stream size                 : 4.71 GiB (91%)
    Writing library             : x264 core 157 r2935 545de2f
    Encoding settings           : cabac=1 / ref=4 / deblock=1:0:0 / analyse=0x3:0x133 / me=tesa / subme=11 / psy=1 / psy_rd=1.00:0.00 / mixed_ref=1 / me_range=24 / chroma_me=1 / trellis=2 / 8x8dct=1 / cqm=0 / deadzone=21,11 / fast_pskip=0 / chroma_qp_offset=-2 / threads=34 / lookahead_threads=8 / sliced_threads=0 / nr=0 / decimate=1 / interlaced=0 / bluray_compat=0 / constrained_intra=0 / bframes=16 / b_pyramid=2 / b_adapt=2 / b_bias=0 / direct=3 / weightb=1 / open_gop=0 / weightp=2 / keyint=240 / keyint_min=24 / scenecut=40 / intra_refresh=0 / rc_lookahead=60 / rc=crf / mbtree=1 / crf=20.0 / qcomp=0.60 / qpmin=0 / qpmax=69 / qpstep=4 / vbv_maxrate=62500 / vbv_bufsize=78125 / crf_max=0.0 / nal_hrd=none / filler=0 / ip_ratio=1.40 / aq=1:1.00
    Default                     : Yes
    Forced                      : No
    Color range                 : Limited
    Color primaries             : BT.709
    Transfer characteristics    : BT.709
    Matrix coefficients         : BT.709

    Audio #1
    ID                          : 2
    Format                      : AC-3
    Format/Info                 : Audio Coding 3
    Commercial name             : Dolby Digital
    Codec ID                    : A_AC3
    Duration                    : 1 h 22 min
    Bit rate mode               : Constant
    Bit rate                    : 192 kb/s
    Channel(s)                  : 2 channels
    Channel layout              : L R
    Sampling rate               : 48.0 kHz
    Frame rate                  : 31.250 FPS (1536 SPF)
    Bit depth                   : 16 bits
    Compression mode            : Lossy
    Delay relative to video     : 8 s 0 ms
    Stream size                 : 113 MiB (2%)
    Language                    : Spanish
    Service kind                : Complete Main
    Default                     : No
    Forced                      : No

    Audio #2
    ID                          : 3
    Format                      : AC-3
    Format/Info                 : Audio Coding 3
    Commercial name             : Dolby Digital
    Codec ID                    : A_AC3
    Duration                    : 1 h 22 min
    Bit rate mode               : Constant
    Bit rate                    : 640 kb/s
    Channel(s)                  : 6 channels
    Channel layout              : L R C LFE Ls Rs
    Sampling rate               : 48.0 kHz
    Frame rate                  : 31.250 FPS (1536 SPF)
    Bit depth                   : 16 bits
    Compression mode            : Lossy
    Delay relative to video     : 8 s 45 ms
    Stream size                 : 377 MiB (7%)
    Language                    : English
    Service kind                : Complete Main
    Default                     : Yes
    Forced                      : No

    Text
    ID                          : 4
    Format                      : UTF-8
    Codec ID                    : S_TEXT/UTF8
    Codec ID/Info               : UTF-8 Plain Text
    Duration                    : 1 h 14 min
    Bit rate                    : 53 b/s
    Count of elements           : 1077
    Stream size                 : 29.3 KiB (0%)
    Language                    : Spanish
    Default                     : Yes
    Forced                      : No

    Menu
    00:00:00.000                : :00:00:00.000
    00:02:07.210                : :00:02:07.210
    00:07:41.628                : :00:07:41.628
    00:15:12.745                : :00:15:12.745
    00:20:29.186                : :00:20:29.186
    00:23:18.355                : :00:23:18.355
    00:28:19.323                : :00:28:19.323
    00:34:07.963                : :00:34:07.963
    00:39:03.091                : :00:39:03.091
    00:44:40.803                : :00:44:40.803
    00:48:35.704                : :00:48:35.704
    00:51:09.149                : :00:51:09.149
    00:56:06.780                : :00:56:06.780
    00:59:39.076                : :00:59:39.075
    01:01:05.412                : :01:01:05.412
    01:06:31.738                : :01:06:31.613

  • Peso: 5.19 GiB

Sinopsis

En esta ocasión los hermanos Wayans empiezan la historia con una satírica parodia de El Exorcista, mostrando a James Woods en el papel de un cura poco convencional, el padre McFelly, ocupado en salvar a una Natasha Lyonne de un espíritu de otro mundo. Entonces, retomando la historia donde la dejaron, los hermanos Wayans se vuelven a reunir de forma cómica con la heroína Cindy Campbell, convertida ahora en una buena estudiante universitaria. Un profesor loco la recluta a ella y a su grupo de compañeros deseosos de vivir aventuras y nuevas experiencias, para una salida de fin de semana bajo el pretexto de realizar un experimento científico. Mientras se desarollan las actividades del fin de semana, las continuas sorpresas mantienen la diversión siempre en marcha.

Ficha técnica

Video trailer de la película

Enlaces de descarga

Rip de Bluray

Descargar Scary Movie 2 (2001) Full HD 1080p Latino




Aportes de DPeliculasHDmega la pass es:dpeliculashdmega.org Aportes de CinemaniaHD la pass es:cinemaniahdd.com
Guardado en : Comedia , FULL 1080p Plateadas

Películas relacionadas

  • Tren Bala (2022) WEB-DL 4K UHD HDR Latino

    Tren Bala (2022) WEB-DL 4K UHD HDR Latino

    2022
    Tren Bala (2022) WEB-DL 4K UHD HDR Latino

    2h 7m 2022

    Descargar Tren Bala (2022) WEB-DL 4K UHD HDR Latino. El desafortunado asesino "Catarina" está decidido...

    Director: Paul Barry

    Género: 4K HDR

    Actores: Zooey Miyoshi

  • Tren Bala (2022) AMZN WEB-DL 1080p Latino

    Tren Bala (2022) AMZN WEB-DL 1080p Latino

    2022
    Tren Bala (2022) AMZN WEB-DL 1080p Latino

    2h 7m 2022

    Descargar Tren Bala (2022) AMZN WEB-DL 1080p Latino. Cinco asesinos a sueldo se encuentran a bordo de...

    Director: Paul Barry

    Género: Acción

    Actores: Zooey Miyoshi

  • Rick y Morty (2022) Temporada 6 WEB-DL 1080p Latino

    Rick y Morty (2022) Temporada 6 WEB-DL 1080p Latino

    2013
    Rick y Morty (2022) Temporada 6 WEB-DL 1080p Latino

    0h 22m 2013

    Comedia animada que narra las aventuras de un científico loco Rick Sánchez, que regresa después de...

    Director: Justin Roiland

    Género: Action & Adventure

    Actores: Spencer Grammer

descargar Scary Movie 2 (2001) Full HD 1080p Latino Full 1080p 1080p gratis, Scary Movie 2 (2001) Full HD 1080p Latino Full 1080p mega 1 link, Scary Movie 2 (2001) Full HD 1080p Latino Full 1080p pelicula completa, descargar Scary Movie 2 (2001) Full HD 1080p Latino Full 1080p gratis en mega.

Scary Movie 2 (2001) Full HD 1080p Latino pelicula full hd, Scary Movie 2 (2001) Full HD 1080p Latino mega latino, Scary Movie 2 (2001) Full HD 1080p Latino 4k latino, Scary Movie 2 (2001) Full HD 1080p Latino pelicula completa, Scary Movie 2 (2001) Full HD 1080p Latino descargar gratis, descargar Scary Movie 2 (2001) Full HD 1080p Latino pelicula latino, Scary Movie 2 (2001) Full HD 1080p Latino 1 link mega, Scary Movie 2 (2001) Full HD 1080p Latino 1 link google drive, Scary Movie 2 (2001) Full HD 1080p Latino hd 1080p latino.
Comentarios 1
  • ocpgaiden - 02 junio, 2020

    Son geniales estas pelicuas, saludos