×

¿Problemas para descargar con Mozilla, EDGE? Deshabilita la opción "Abrir vinculos en una pestaña nueva" tal como lo muestra ésta imagen.

Scarface (1983) REMUX 4K HDR Latino – CMHDD

277 vistas

Información de Scarface (1983) REMUX 4K HDR Latino – CMHDD

Datos de la película

  • Calidad: 4K HDR
  • Audio: Español Latino DTS 5.1 BLURAY - Ingles DTS-HD Master 7.1 BLURAY
  • Subtitulos: Español Latino PGS
  • Resolución: 3840x2160p
  • Formato: MKV
  • Codec: H.264
  • Encoder: Dracarys
  • Mediainfo: Clic para Mostrar Datos Ver
  • Format                      : Matroska
    Format version              : Version 4
    File size                   : 74.0 GiB
    Duration                    : 2 h 49 min
    Overall bit rate mode       : Variable
    Overall bit rate            : 62.4 Mb/s
    Movie name                  : Scarface (1983) REMUX 4K HDR Latino - CMHDD
    Encoded date                : UTC 2021-10-03 19:37:51
    Writing application         : mkvmerge v17.0.0 ('Be Ur Friend') 64-bit
    Writing library             : libebml v1.3.5 + libmatroska v1.4.8

    Video
    ID                          : 1
    Format                      : HEVC
    Format/Info                 : High Efficiency Video Coding
    Format profile              : Main 10@L5.1@High
    HDR format                  : SMPTE ST 2086, HDR10 compatible
    Codec ID                    : V_MPEGH/ISO/HEVC
    Duration                    : 2 h 49 min
    Bit rate                    : 55.8 Mb/s
    Width                       : 3 840 pixels
    Height                      : 2 160 pixels
    Display aspect ratio        : 16:9
    Frame rate mode             : Constant
    Frame rate                  : 23.976 (24000/1001) FPS
    Color space                 : YUV
    Chroma subsampling          : 4:2:0 (Type 2)
    Bit depth                   : 10 bits
    Bits/(Pixel*Frame)          : 0.281
    Stream size                 : 66.2 GiB (89%)
    Writing library             : ATEME Titan File 3.8.16 (4.8.16.0)      
    Default                     : Yes
    Forced                      : No
    Color range                 : Limited
    Color primaries             : BT.2020
    Transfer characteristics    : PQ
    Matrix coefficients         : BT.2020 non-constant
    Mastering display color pri : Display P3
    Mastering display luminance : min: 0.0050 cd/m2, max: 1000 cd/m2
    Maximum Content Light Level : 1000 cd/m2
    Maximum Frame-Average Light : 155 cd/m2

    Audio #1
    ID                          : 2
    Format                      : DTS XLL X
    Format/Info                 : Digital Theater Systems
    Commercial name             : DTS-HD Master Audio
    Codec ID                    : A_DTS
    Duration                    : 2 h 49 min
    Bit rate mode               : Variable
    Bit rate                    : 5 793 kb/s
    Channel(s)                  : 8 channels
    Channel(s)_Original         : Object Based
    ChannelLayout_Original      : Object Based
    Sampling rate               : 48.0 kHz
    Frame rate                  : 93.750 FPS (512 SPF)
    Bit depth                   : 24 bits
    Stream size                 : 6.87 GiB (9%)
    Language                    : English
    Default                     : No
    Forced                      : No

    Audio #2
    ID                          : 3
    Format                      : DTS
    Format/Info                 : Digital Theater Systems
    Codec ID                    : A_DTS
    Duration                    : 2 h 49 min
    Bit rate mode               : Constant
    Bit rate                    : 768 kb/s
    Channel(s)                  : 2 channels
    Channel layout              : L R
    Sampling rate               : 48.0 kHz
    Frame rate                  : 93.750 FPS (512 SPF)
    Bit depth                   : 24 bits
    Compression mode            : Lossy
    Stream size                 : 933 MiB (1%)
    Language                    : Spanish
    Default                     : Yes
    Forced                      : No

    Text #1
    ID                          : 4
    Format                      : PGS
    Muxing mode                 : zlib
    Codec ID                    : S_HDMV/PGS
    Codec ID/Info               : Picture based subtitle format used on BDs/HD-DVDs
    Duration                    : 2 h 43 min
    Bit rate                    : 25.2 kb/s
    Count of elements           : 3682
    Stream size                 : 29.6 MiB (0%)
    Language                    : Spanish
    Default                     : No
    Forced                      : No

    Text #2
    ID                          : 5
    Format                      : PGS
    Muxing mode                 : zlib
    Codec ID                    : S_HDMV/PGS
    Codec ID/Info               : Picture based subtitle format used on BDs/HD-DVDs
    Duration                    : 1 h 19 min
    Bit rate                    : 91 b/s
    Count of elements           : 6
    Stream size                 : 53.2 KiB (0%)
    Language                    : Spanish
    Default                     : No
    Forced                      : No

    Menu
    00:00:00.000                : en:Chapter 1
    00:08:11.574                : en:Chapter 2
    00:10:55.237                : en:Chapter 3
    00:13:40.194                : en:Chapter 4
    00:15:43.025                : en:Chapter 5
    00:20:58.298                : en:Chapter 6
    00:29:51.289                : en:Chapter 7
    00:33:09.362                : en:Chapter 8
    00:34:42.538                : en:Chapter 9
    00:43:13.173                : en:Chapter 10
    00:46:46.053                : en:Chapter 11
    00:50:45.250                : en:Chapter 12
    00:59:02.705                : en:Chapter 13
    01:04:15.643                : en:Chapter 14
    01:08:20.471                : en:Chapter 15
    01:12:57.539                : en:Chapter 16
    01:17:17.841                : en:Chapter 17
    01:23:33.133                : en:Chapter 18
    01:28:48.323                : en:Chapter 19
    01:33:44.243                : en:Chapter 20
    01:43:31.496                : en:Chapter 21
    01:47:01.706                : en:Chapter 22
    01:51:48.410                : en:Chapter 23
    01:57:19.991                : en:Chapter 24
    02:02:43.105                : en:Chapter 25
    02:07:08.203                : en:Chapter 26
    02:13:58.405                : en:Chapter 27
    02:16:04.447                : en:Chapter 28
    02:21:46.080                : en:Chapter 29
    02:24:22.779                : en:Chapter 30
    02:30:37.862                : en:Chapter 31
    02:35:14.888                : en:Chapter 32
    02:37:33.068                : en:Chapter 33
    02:40:04.303                : en:Chapter 34
    02:43:20.999                : en:Chapter 35

  • Peso: 74.0 GiB

Sinopsis

Un emigrante cubano frío y sanguinario, Tony Montana, llega de Cuba para instalarse en Miami, donde se propone hacerse con un nombre dentro del crimen organizado de Florida. Junto a su amigo, Manny Rivera, inicia una ascendente carrera delictiva.

Ficha técnica

Video trailer de la película

Enlaces de descarga

Rip de Bluray

Descargar Scarface (1983) REMUX 4K HDR Latino – CMHDD


Aportes de DPeliculasHDmega la pass es:dpeliculashdmega.org Aportes de CinemaniaHD la pass es:cinemaniahdd.com
Guardado en : Acción , Crimen , Drama , Suspenso

Películas relacionadas

  • El discurso del Rey (2010) 1080p Latino

    El discurso del Rey (2010) 1080p Latino

    2010
    El discurso del Rey (2010) 1080p Latino

    1h 58m 2010

    Descargar El discurso del Rey (2010) 1080p Latino. El duque de York se convirtió en rey de Gran Bretaña...

    Director: Tom Hooper

    Género: Drama

    Actores: Tony Earnshaw

  • El discurso del Rey (2010) Full HD 1080p Latino

    El discurso del Rey (2010) Full HD 1080p Latino

    2010
    El discurso del Rey (2010) Full HD 1080p Latino

    1h 58m 2010

    Descargar El discurso del Rey (2010) Full HD 1080p Latino. El duque de York se convirtió en rey de Gran...

    Director: Tom Hooper

    Género: Drama

    Actores: Tony Earnshaw

  • El discurso del Rey (2010) REMUX 1080p Latino

    El discurso del Rey (2010) REMUX 1080p Latino

    2010
    El discurso del Rey (2010) REMUX 1080p Latino

    1h 58m 2010

    Descargar El discurso del Rey (2010) REMUX 1080p Latino. El duque de York se convirtió en rey de Gran...

    Director: Tom Hooper

    Género: Drama

    Actores: Tony Earnshaw

  • 8 Mile (2002) REMUX 4K HDR Latino – CMHDD

    8 Mile (2002) REMUX 4K HDR Latino – CMHDD

    2002
    8 Mile (2002) REMUX 4K HDR Latino – CMHDD

    1h 50m 2002

    Detroit, 1995. La promesa de potencia industrial se ha transformado en un hervidero de conflictos económicos...

    Director: Michael J. Moore

    Género: Drama

    Actores: Xzibit

descargar Scarface (1983) REMUX 4K HDR Latino – CMHDD 4K HDR 1080p gratis, Scarface (1983) REMUX 4K HDR Latino – CMHDD 4K HDR mega 1 link, Scarface (1983) REMUX 4K HDR Latino – CMHDD 4K HDR pelicula completa, descargar Scarface (1983) REMUX 4K HDR Latino – CMHDD 4K HDR gratis en mega.

Scarface (1983) REMUX 4K HDR Latino – CMHDD pelicula full hd, Scarface (1983) REMUX 4K HDR Latino – CMHDD mega latino, Scarface (1983) REMUX 4K HDR Latino – CMHDD 4k latino, Scarface (1983) REMUX 4K HDR Latino – CMHDD pelicula completa, Scarface (1983) REMUX 4K HDR Latino – CMHDD descargar gratis, descargar Scarface (1983) REMUX 4K HDR Latino – CMHDD pelicula latino, Scarface (1983) REMUX 4K HDR Latino – CMHDD 1 link mega, Scarface (1983) REMUX 4K HDR Latino – CMHDD 1 link google drive, Scarface (1983) REMUX 4K HDR Latino – CMHDD hd 1080p latino.