×

¿Problemas para descargar con Mozilla, EDGE? Deshabilita la opción "Abrir vinculos en una pestaña nueva" tal como lo muestra ésta imagen.

Caracortada (1983) 4K UHD HDR Latino

1.820 vistas

Información de Caracortada (1983) 4K UHD HDR Latino

Datos de la película

  • Calidad: 4K HDR
  • Audio: Español Latino DTS 2.0 BLURAY - Ingles DTS 5.1 BLURAY
  • Subtitulos: Español Latino PGS - Ingles PGS
  • Resolución: 3840x1632p
  • Formato: MKV
  • Codec: HEVC
  • Encoder: CinefiloCool
  • Mediainfo: Clic para Mostrar Datos Ver
  • Scarface (1983) UHD HDR Latino-CMHDD.mkv
    Format                      : Matroska
    Format version              : Version 4
    File size                   : 24.3 GiB
    Duration                    : 2 h 49 min
    Overall bit rate            : 20.5 Mb/s
    Movie name                  : Scarface (1983) CinemaniaHDD.Net
    Encoded date                : UTC 2019-10-29 16:31:40
    Writing application         : mkvmerge v38.0.0 ('The Silent Type') 64-bit
    Writing library             : libebml v1.3.9 + libmatroska v1.5.2
    Attachments                 : CINEMANIAHD.png

    Video
    ID                          : 1
    Format                      : HEVC
    Format/Info                 : High Efficiency Video Coding
    Commercial name             : HDR10
    Format profile              : Main 10@L5.1@High
    Codec ID                    : V_MPEGH/ISO/HEVC
    Duration                    : 2 h 49 min
    Bit rate                    : 18.0 Mb/s
    Width                       : 3 840 pixels
    Height                      : 1 632 pixels
    Display aspect ratio        : 2.35:1
    Frame rate mode             : Constant
    Frame rate                  : 23.976 (24000/1001) FPS
    Color space                 : YUV
    Chroma subsampling          : 4:2:0 (Type 2)
    Bit depth                   : 10 bits
    Bits/(Pixel*Frame)          : 0.119
    Stream size                 : 21.3 GiB (88%)
    Title                       : 2160p HDR [Bluray]
    Default                     : Yes
    Forced                      : No
    Color range                 : Limited
    Color primaries             : BT.2020
    Transfer characteristics    : PQ
    Matrix coefficients         : BT.2020 non-constant
    Mastering display color pri : Display P3
    Mastering display luminance : min: 0.0050 cd/m2, max: 1000 cd/m2
    Maximum Content Light Level : 1000 cd/m2
    Maximum Frame-Average Light : 155 cd/m2

    Audio #1
    ID                          : 2
    Format                      : DTS
    Format/Info                 : Digital Theater Systems
    Codec ID                    : A_DTS
    Duration                    : 2 h 49 min
    Bit rate mode               : Constant
    Bit rate                    : 768 kb/s
    Channel(s)                  : 2 channels
    Channel layout              : L R
    Sampling rate               : 48.0 kHz
    Frame rate                  : 93.750 FPS (512 SPF)
    Bit depth                   : 24 bits
    Compression mode            : Lossy
    Stream size                 : 933 MiB (4%)
    Title                       : DTS_2.0_Bluray_Esp
    Language                    : Spanish
    Default                     : Yes
    Forced                      : Yes

    Audio #2
    ID                          : 3
    Format                      : DTS
    Format/Info                 : Digital Theater Systems
    Codec ID                    : A_DTS
    Duration                    : 2 h 49 min
    Bit rate mode               : Constant
    Bit rate                    : 1 509 kb/s
    Channel(s)                  : 6 channels
    Channel layout              : C L R Ls Rs LFE
    Sampling rate               : 48.0 kHz
    Frame rate                  : 93.750 FPS (512 SPF)
    Bit depth                   : 24 bits
    Compression mode            : Lossy
    Stream size                 : 1.79 GiB (7%)
    Title                       : DTS_5.1_Bluray_Eng
    Language                    : English
    Default                     : No
    Forced                      : No

    Audio #3
    ID                          : 4
    Format                      : AC-3
    Format/Info                 : Audio Coding 3
    Commercial name             : Dolby Digital
    Codec ID                    : A_AC3
    Duration                    : 2 h 49 min
    Bit rate mode               : Constant
    Bit rate                    : 256 kb/s
    Channel(s)                  : 2 channels
    Channel layout              : L R
    Sampling rate               : 48.0 kHz
    Frame rate                  : 31.250 FPS (1536 SPF)
    Bit depth                   : 16 bits
    Compression mode            : Lossy
    Stream size                 : 311 MiB (1%)
    Title                       : AC3_2.0_Bluray_Esp
    Language                    : Spanish
    Service kind                : Complete Main
    Default                     : No
    Forced                      : No

    Text #1
    ID                          : 5
    Format                      : PGS
    Muxing mode                 : zlib
    Codec ID                    : S_HDMV/PGS
    Codec ID/Info               : Picture based subtitle format used on BDs/HD-DVDs
    Duration                    : 1 h 19 min
    Bit rate                    : 91 b/s
    Count of elements           : 6
    Stream size                 : 53.2 KiB (0%)
    Title                       : Sub_Forzados [PGS]
    Language                    : Spanish
    Default                     : Yes
    Forced                      : Yes

    Text #2
    ID                          : 6
    Format                      : PGS
    Muxing mode                 : zlib
    Codec ID                    : S_HDMV/PGS
    Codec ID/Info               : Picture based subtitle format used on BDs/HD-DVDs
    Duration                    : 2 h 43 min
    Bit rate                    : 25.2 kb/s
    Count of elements           : 3682
    Stream size                 : 29.6 MiB (0%)
    Title                       : Sub_Esp [PGS]
    Language                    : Spanish
    Default                     : No
    Forced                      : No

    Text #3
    ID                          : 7
    Format                      : PGS
    Muxing mode                 : zlib
    Codec ID                    : S_HDMV/PGS
    Codec ID/Info               : Picture based subtitle format used on BDs/HD-DVDs
    Duration                    : 2 h 42 min
    Bit rate                    : 39.1 kb/s
    Count of elements           : 4812
    Stream size                 : 45.4 MiB (0%)
    Title                       : Sub_Eng [PGS]
    Language                    : English
    Default                     : No
    Forced                      : No

    Text #4
    ID                          : 8
    Format                      : UTF-8
    Codec ID                    : S_TEXT/UTF8
    Codec ID/Info               : UTF-8 Plain Text
    Duration                    : 1 h 19 min
    Bit rate                    : 0 b/s
    Count of elements           : 3
    Stream size                 : 64.0 Bytes (0%)
    Title                       : Sub_Forzados
    Language                    : Spanish
    Default                     : No
    Forced                      : No

    Text #5
    ID                          : 9
    Format                      : UTF-8
    Codec ID                    : S_TEXT/UTF8
    Codec ID/Info               : UTF-8 Plain Text
    Duration                    : 2 h 43 min
    Bit rate                    : 40 b/s
    Count of elements           : 1868
    Stream size                 : 48.5 KiB (0%)
    Title                       : Sub_Esp
    Language                    : Spanish
    Default                     : No
    Forced                      : No

    Menu
    00:00:00.000                : en:Chapter 01
    00:08:11.574                : en:Chapter 02
    00:10:55.237                : en:Chapter 03
    00:13:40.194                : en:Chapter 04
    00:15:43.025                : en:Chapter 05
    00:20:57.923                : en:Chapter 06
    00:29:51.289                : en:Chapter 07
    00:33:09.362                : en:Chapter 08
    00:34:42.538                : en:Chapter 09
    00:43:13.090                : en:Chapter 10
    00:46:46.053                : en:Chapter 11
    00:50:45.042                : en:Chapter 12
    00:59:02.705                : en:Chapter 13
    01:04:15.643                : en:Chapter 14
    01:08:20.471                : en:Chapter 15
    01:12:57.206                : en:Chapter 16
    01:17:17.841                : en:Chapter 17
    01:23:33.008                : en:Chapter 18
    01:28:48.031                : en:Chapter 19
    01:33:44.243                : en:Chapter 20
    01:43:31.413                : en:Chapter 21
    01:47:01.706                : en:Chapter 22
    01:51:48.410                : en:Chapter 23
    01:57:19.991                : en:Chapter 24
    02:02:43.105                : en:Chapter 25
    02:07:08.203                : en:Chapter 26
    02:13:58.405                : en:Chapter 27
    02:16:04.447                : en:Chapter 28
    02:21:45.705                : en:Chapter 29
    02:24:22.779                : en:Chapter 30
    02:30:37.778                : en:Chapter 31
    02:35:14.888                : en:Chapter 32
    02:37:33.068                : en:Chapter 33
    02:40:04.177                : en:Chapter 34
    02:43:20.999                : en:Chapter 35

  • Peso: 24.3 GiB

Sinopsis

Descargar Caracortada (1983) 4K UHD HDR Latino. Un emigrante cubano frío y sanguinario, Tony Montana, llega de Cuba para instalarse en Miami, donde se propone hacerse con un nombre dentro del crimen organizado de Florida. Junto a su amigo, Manny Rivera, inicia una ascendente carrera delictiva.

Ficha técnica

Video trailer de la película

Enlaces de descarga

Rip de Bluray

Descargar Caracortada (1983) 4K UHD HDR Latino




Aportes de DPeliculasHDmega la pass es:dpeliculashdmega.org Aportes de CinemaniaHD la pass es:cinemaniahdd.com
Guardado en : 4K HDR , 4K UHD , Acción , Crimen , Drama , Suspenso

Películas relacionadas

  • El Ultimo Juego (2021) WEB-DL 1080p Latino

    El Ultimo Juego (2021) WEB-DL 1080p Latino

    2021
    El Ultimo Juego (2021) WEB-DL 1080p Latino

    1h 21m 2021

    Descargar El Ultimo Juego (2021) WEB-DL 1080p Latino. 6 extraños se despiertan dentro de una habitación...

    Director: John David Moffat IV

    Género: Drama

    Actores: Yasmin Irvine

  • DC Liga De Supermascotas (2022) HD 1080p Latino

    DC Liga De Supermascotas (2022) HD 1080p Latino

    2022
    DC Liga De Supermascotas (2022) HD 1080p Latino

    1h 45m 2022

    Descargar DC Liga De Supermascotas (2022) HD 1080p Latino. Krypto el Superperro y Superman son amigos...

    Director: Sam Levine

    Género: Acción

    Actores: Yvette Nicole Brown

  • Invitacion Al Infierno (2022) MA WEB-DL 1080p Latino

    Invitacion Al Infierno (2022) MA WEB-DL 1080p Latino

    2022
    Invitacion Al Infierno (2022) MA WEB-DL 1080p Latino

    1h 45m 2022

    Descargar Invitacion Al Infierno (2022) MA WEB-DL 1080p Latino. Tras la muerte de su madre y quedarse...

    Director: Jessica M. Thompson

    Género: Suspenso

    Actores: Virág Bárány

descargar Caracortada (1983) 4K UHD HDR Latino 4K HDR 1080p gratis, Caracortada (1983) 4K UHD HDR Latino 4K HDR mega 1 link, Caracortada (1983) 4K UHD HDR Latino 4K HDR pelicula completa, descargar Caracortada (1983) 4K UHD HDR Latino 4K HDR gratis en mega.

Caracortada (1983) 4K UHD HDR Latino pelicula full hd, Caracortada (1983) 4K UHD HDR Latino mega latino, Caracortada (1983) 4K UHD HDR Latino 4k latino, Caracortada (1983) 4K UHD HDR Latino pelicula completa, Caracortada (1983) 4K UHD HDR Latino descargar gratis, descargar Caracortada (1983) 4K UHD HDR Latino pelicula latino, Caracortada (1983) 4K UHD HDR Latino 1 link mega, Caracortada (1983) 4K UHD HDR Latino 1 link google drive, Caracortada (1983) 4K UHD HDR Latino hd 1080p latino.
Comentarios 0