×

¿Problemas para descargar con Mozilla, EDGE? Deshabilita la opción "Abrir vinculos en una pestaña nueva" tal como lo muestra ésta imagen.

Sayen (2023) AMZN WEB-DL 1080p Latino

329 vistas

Información de Sayen (2023) AMZN WEB-DL 1080p Latino

Datos de la película

  • Calidad: WEBDL
  • Audio: Se especifica abajo de la Sinopsis
  • Subtitulos: Español Latino SRT- FORZADOS SRT
  • Resolución: 1920x960p
  • Formato: MKV
  • Codec: H.264
  • Encoder: Melkor
  • Mediainfo: Clic para Mostrar Datos Ver
  • Sayen (2023) AMZN WebDL 1080p Latino.mkv
    Format                      : Matroska
    Format version              : Version 4
    File size                   : 6.64 GiB
    Duration                    : 1 h 34 min
    Overall bit rate            : 10.1 Mb/s
    Movie name                  : Sayen (2023) CinemaniaHDD.Net
    Encoded date                : UTC 2023-03-08 07:01:50
    Writing application         : mkvmerge v56.1.0 ('My Friend') 64-bit
    Writing library             : libebml v1.4.2 + libmatroska v1.6.4
    Attachments                 : CINEMANIAHD.png
    Site                        : CinemaniaHDD.Net
    Uploader                    : Melkor

    Video
    ID                          : 1
    Format                      : AVC
    Format/Info                 : Advanced Video Codec
    Format profile              : High@L4
    Format settings             : CABAC / 4 Ref Frames
    Format settings, CABAC      : Yes
    Format settings, Reference  : 4 frames
    Codec ID                    : V_MPEG4/ISO/AVC
    Duration                    : 1 h 34 min
    Bit rate mode               : Constant
    Bit rate                    : 8 772 kb/s
    Nominal bit rate            : 10 000 kb/s
    Width                       : 1 920 pixels
    Height                      : 960 pixels
    Display aspect ratio        : 2.000
    Frame rate mode             : Constant
    Frame rate                  : 23.976 (24000/1001) FPS
    Color space                 : YUV
    Chroma subsampling          : 4:2:0
    Bit depth                   : 8 bits
    Scan type                   : Progressive
    Bits/(Pixel*Frame)          : 0.198
    Stream size                 : 5.79 GiB (87%)
    Title                       : WEB HD1080p [CinemaniaHDD]
    Default                     : Yes
    Forced                      : Yes
    Color range                 : Limited
    Color primaries             : BT.709
    Transfer characteristics    : BT.709
    Matrix coefficients         : BT.709

    Audio #1
    ID                          : 2
    Format                      : AC-3
    Format/Info                 : Audio Coding 3
    Commercial name             : Dolby Digital
    Codec ID                    : A_AC3
    Duration                    : 1 h 34 min
    Bit rate mode               : Constant
    Bit rate                    : 640 kb/s
    Channel(s)                  : 6 channels
    Channel layout              : L R C LFE Ls Rs
    Sampling rate               : 48.0 kHz
    Frame rate                  : 31.250 FPS (1536 SPF)
    Compression mode            : Lossy
    Stream size                 : 433 MiB (6%)
    Title                       : Español Latino AC3 [CinemaniaHDD]
    Language                    : Spanish
    Service kind                : Complete Main
    Default                     : Yes
    Forced                      : Yes

    Audio #2
    ID                          : 3
    Format                      : E-AC-3
    Format/Info                 : Enhanced AC-3
    Commercial name             : Dolby Digital Plus
    Codec ID                    : A_EAC3
    Duration                    : 1 h 34 min
    Bit rate mode               : Constant
    Bit rate                    : 640 kb/s
    Channel(s)                  : 6 channels
    Channel layout              : L R C LFE Ls Rs
    Sampling rate               : 48.0 kHz
    Frame rate                  : 31.250 FPS (1536 SPF)
    Compression mode            : Lossy
    Stream size                 : 433 MiB (6%)
    Title                       : Español Latino EAC3 [CinemaniaHDD]
    Language                    : Spanish
    Service kind                : Complete Main
    Default                     : No
    Forced                      : No

    Text #1
    ID                          : 4
    Format                      : UTF-8
    Codec ID                    : S_TEXT/UTF8
    Codec ID/Info               : UTF-8 Plain Text
    Duration                    : 1 h 18 min
    Bit rate                    : 5 b/s
    Count of elements           : 163
    Stream size                 : 3.22 KiB (0%)
    Title                       : Forzados-SRT [CinemaniaHDD]
    Language                    : Spanish
    Default                     : Yes
    Forced                      : No

    Text #2
    ID                          : 5
    Format                      : UTF-8
    Codec ID                    : S_TEXT/UTF8
    Codec ID/Info               : UTF-8 Plain Text
    Duration                    : 1 h 33 min
    Bit rate                    : 55 b/s
    Count of elements           : 1289
    Stream size                 : 37.7 KiB (0%)
    Title                       : Español-SRT [CinemaniaHDD]
    Language                    : Spanish
    Default                     : No
    Forced                      : No

    Menu
    00:00:00.000                : Amazon Original
    00:00:06.000                : Opening Credits
    00:00:10.000                : Scene 3
    00:00:21.000                : Scene 4
    00:00:34.000                : Studio Logo
    00:00:39.000                : Scene 6
    00:01:47.000                : Title Sequence
    00:01:57.000                : Scene 8
    00:05:35.000                : Scene 9
    00:10:36.000                : Scene 10
    00:14:51.000                : Scene 11
    00:19:39.000                : Scene 12
    00:23:18.000                : Scene 13
    00:26:42.000                : Scene 14
    00:31:10.000                : Scene 15
    00:35:14.000                : Scene 16
    00:38:44.000                : Scene 17
    00:43:06.000                : Scene 18
    00:46:45.000                : Scene 19
    00:51:01.000                : Scene 20
    00:55:17.000                : Scene 21
    01:00:36.000                : Scene 22
    01:05:03.000                : Scene 23
    01:08:48.000                : Scene 24
    01:12:36.000                : Scene 25
    01:17:30.000                : Scene 26
    01:21:07.000                : Scene 27
    01:24:11.000                : Scene 28
    01:27:40.000                : End Credits

  • Peso: 6.64 GiB

Sinopsis

Descargar Sayen (2023) AMZN WEB-DL 1080p Latino. Sayen, una mujer mapuche, descubre una peligrosa conspiración liderada por una corporación que está destruyendo las tierras de su familia y destruyendo los ecosistemas locales en toda América Latina. Sayen tendrá la tarea de llevar el caso ante la justicia y salvar el legado de su familia. Primera entrega de una trilogía.

Español Latino EAC3 & AC3 5.1 Web

Ficha técnica

Video trailer de la película

Enlaces de descarga

Rip de Bluray

Descargar Sayen (2023) AMZN WEB-DL 1080p Latino




Aportes de DPeliculasHDmega la pass es:dpeliculashdmega.org Aportes de CinemaniaHD la pass es:cinemaniahdd.com Aportes recientes:cinemaniahdd.net
Guardado en : Acción , Suspenso

Películas relacionadas

  • Familia Nacional (2023) WEB-DL 1080p Latino

    Familia Nacional (2023) WEB-DL 1080p Latino

    2023
    Familia Nacional (2023) WEB-DL 1080p Latino

    1h 43m 2023

    Descargar Familia Nacional (2023) WEB-DL 1080p Latino. Don Poli es el patriarca de una familia disfuncional...

    Director: Marcelo Tobar

    Género: Acción

    Actores: Tadeo Tovar

  • Strictly Confidential (2024) WEB-DL 1080p Latino

    Strictly Confidential (2024) WEB-DL 1080p Latino

    2024
    Strictly Confidential (2024) WEB-DL 1080p Latino

    1h 28m 2024

    Descargar Strictly Confidential (2024) WEB-DL 1080p Latino. Una joven atormentada se ve atraída por...

    Director: Damian Hurley

    Género: Misterio

    Actores: Thomas Downey

  • La Otra Cara de Dorian (2023) WEB-DL 1080p Latino

    La Otra Cara de Dorian (2023) WEB-DL 1080p Latino

    2023
    La Otra Cara de Dorian (2023) WEB-DL 1080p Latino

    1h 40m 2023

    Descargar La Otra Cara de Dorian (2023) WEB-DL 1080p Latino. Una versión moderna del cuento de Oscar...

    Director: Richard John Taylor

    Género: Drama

    Actores: Triana Terry

descargar Sayen (2023) AMZN WEB-DL 1080p Latino WEBDL 1080p gratis, Sayen (2023) AMZN WEB-DL 1080p Latino WEBDL mega 1 link, Sayen (2023) AMZN WEB-DL 1080p Latino WEBDL pelicula completa, descargar Sayen (2023) AMZN WEB-DL 1080p Latino WEBDL gratis en mega.

Sayen (2023) AMZN WEB-DL 1080p Latino pelicula full hd, Sayen (2023) AMZN WEB-DL 1080p Latino mega latino, Sayen (2023) AMZN WEB-DL 1080p Latino 4k latino, Sayen (2023) AMZN WEB-DL 1080p Latino pelicula completa, Sayen (2023) AMZN WEB-DL 1080p Latino descargar gratis, descargar Sayen (2023) AMZN WEB-DL 1080p Latino pelicula latino, Sayen (2023) AMZN WEB-DL 1080p Latino 1 link mega, Sayen (2023) AMZN WEB-DL 1080p Latino 1 link google drive, Sayen (2023) AMZN WEB-DL 1080p Latino hd 1080p latino.
Comentarios 0