×

¿Problemas para descargar con Mozilla, EDGE? Deshabilita la opción "Abrir vinculos en una pestaña nueva" tal como lo muestra ésta imagen.

Saw X (2023) WEB-DL 4K HDR SUB – CMHDD

175 vistas

Información de Saw X (2023) WEB-DL 4K HDR SUB – CMHDD

Datos de la película

  • Calidad: 4K HDR
  • Audio: Se especifica abajo de la Sinopsis
  • Subtitulos: Español Latino PGS
  • Resolución: 3840x2060p
  • Formato: MKV
  • Codec: H.264
  • Encoder: Dracarys
  • Mediainfo: Clic para Mostrar Datos Ver
  • Format                      : Matroska
    Format version              : Version 4
    File size                   : 20.6 GiB
    Duration                    : 1 h 58 min
    Overall bit rate            : 24.9 Mb/s
    Movie name                  : Saw X (2023) WEB-DL 4K HDR SUB - CMHDD
    Encoded date                : UTC 2023-10-20 15:44:18
    Writing application         : mkvmerge v47.0.0 ('Black Flag') 64-bit
    Writing library             : libebml v1.3.10 + libmatroska v1.5.2

    Video
    ID                          : 1
    Format                      : HEVC
    Format/Info                 : High Efficiency Video Coding
    Format profile              : Main 10@L5@High
    HDR format                  : SMPTE ST 2094 App 4, Version 1, HDR10+ Profile B compatible
    Codec ID                    : V_MPEGH/ISO/HEVC
    Duration                    : 1 h 58 min
    Bit rate                    : 24.1 Mb/s
    Width                       : 3 824 pixels
    Height                      : 2 060 pixels
    Display aspect ratio        : 1.85:1
    Frame rate mode             : Constant
    Frame rate                  : 23.976 FPS
    Color space                 : YUV
    Chroma subsampling          : 4:2:0 (Type 2)
    Bit depth                   : 10 bits
    Bits/(Pixel*Frame)          : 0.128
    Stream size                 : 19.9 GiB (97%)
    Language                    : English
    Default                     : Yes
    Forced                      : No
    Color range                 : Limited
    Color primaries             : BT.2020
    Transfer characteristics    : PQ
    Matrix coefficients         : BT.2020 non-constant
    Mastering display color pri : Display P3
    Mastering display luminance : min: 0.0050 cd/m2, max: 1000 cd/m2
    Maximum Content Light Level : 170 cd/m2
    Maximum Frame-Average Light : 104 cd/m2

    Audio
    ID                          : 2
    Format                      : E-AC-3 JOC
    Format/Info                 : Enhanced AC-3 with Joint Object Coding
    Commercial name             : Dolby Digital Plus with Dolby Atmos
    Codec ID                    : A_EAC3
    Duration                    : 1 h 58 min
    Bit rate mode               : Constant
    Bit rate                    : 768 kb/s
    Channel(s)                  : 6 channels
    Channel layout              : L R C LFE Ls Rs
    Sampling rate               : 48.0 kHz
    Frame rate                  : 31.250 FPS (1536 SPF)
    Compression mode            : Lossy
    Stream size                 : 650 MiB (3%)
    Language                    : English
    Service kind                : Complete Main
    Default                     : Yes
    Forced                      : No
    Complexity index            : 16
    Number of dynamic objects   : 15
    Bed channel count           : 1 channel
    Bed channel configuration   : LFE

    Text
    ID                          : 3
    Format                      : UTF-8
    Codec ID                    : S_TEXT/UTF8
    Codec ID/Info               : UTF-8 Plain Text
    Duration                    : 1 h 52 min
    Bit rate                    : 39 b/s
    Frame rate                  : 0.163 FPS
    Count of elements           : 1096
    Stream size                 : 32.7 KiB (0%)
    Language                    : Spanish
    Default                     : Yes
    Forced                      : No

     

  • Peso: 20.6 GiB

Sinopsis

Entre los acontecimientos de ‘Saw’ y ‘Saw II’, un enfermo y desesperado John Kramer viaja a México para someterse a un procedimiento médico arriesgado y experimental con la esperanza de encontrar una cura milagrosa para su cáncer, sólo para descubrir que toda la operación es una estafa para robar a los más vulnerables. Armado con un nuevo propósito, el infame asesino en serie regresa a su trabajo, dándole la vuelta a los estafadores en su forma visceral característica a través de trampas tortuosas, trastornadas e ingeniosas.

 

Ingles: E-AC3 5.1

Ficha técnica

Video trailer de la película

Enlaces de descarga

Rip de Bluray

Descargar Saw X (2023) WEB-DL 4K HDR SUB – CMHDD




Aportes de DPeliculasHDmega la pass es:dpeliculashdmega.org Aportes de CinemaniaHD la pass es:cinemaniahdd.com Aportes recientes:cinemaniahdd.net
Guardado en : Suspenso , Terror

Películas relacionadas

  • Godzilla vs. Kong (2021) REMUX 4K HDR Latino – CMHDD

    Godzilla vs. Kong (2021) REMUX 4K HDR Latino – CMHDD

    2021
    Godzilla vs. Kong (2021) REMUX 4K HDR Latino – CMHDD

    1h 54m 2021

    Godzilla y Kong, dos de las fuerzas más poderosas de un planeta habitado por todo tipo de aterradoras...

    Director: Thomas Robinson Harper

    Género: Acción

    Actores: Victoria Liu

  • Lisa Frankenstein (2024) HD 1080p Latino

    Lisa Frankenstein (2024) HD 1080p Latino

    2024
    Lisa Frankenstein (2024) HD 1080p Latino

    1h 42m 2024

    Descargar Lisa Frankenstein (2024) HD 1080p Latino. En 1989, una impopular chica de secundaria llamada...

    Director: Zelda Williams

    Género: Comedia

    Actores: Wendy Miklovic

  • Lisa Frankenstein (2024) PLACEBO Full HD 1080p Latino

    Lisa Frankenstein (2024) PLACEBO Full HD 1080p Latino

    2024
    Lisa Frankenstein (2024) PLACEBO Full HD 1080p Latino

    1h 42m 2024

    Descargar Lisa Frankenstein (2024) PLACEBO Full HD 1080p Latino. En 1989, una impopular chica de secundaria...

    Director: Zelda Williams

    Género: Comedia

    Actores: Wendy Miklovic

  • Lisa Frankenstein (2024) REMUX 1080p Latino

    Lisa Frankenstein (2024) REMUX 1080p Latino

    2024
    Lisa Frankenstein (2024) REMUX 1080p Latino

    1h 42m 2024

    Descargar Lisa Frankenstein (2024) REMUX 1080p Latino. En 1989, una impopular chica de secundaria llamada...

    Director: Zelda Williams

    Género: Comedia

    Actores: Wendy Miklovic

  • Aguas siniestras (2024) HD 1080p Latino

    Aguas siniestras (2024) HD 1080p Latino

    2024
    Aguas siniestras (2024) HD 1080p Latino

    1h 56m 2024

    Descargar Aguas siniestras (2024) HD 1080p Latino. Ray Waller, una estrella del béisbol obligada a retirarse...

    Director: Phil DeSanti

    Género: HD 1080p

    Actores: Wyatt Russell

descargar Saw X (2023) WEB-DL 4K HDR SUB – CMHDD 4K HDR 1080p gratis, Saw X (2023) WEB-DL 4K HDR SUB – CMHDD 4K HDR mega 1 link, Saw X (2023) WEB-DL 4K HDR SUB – CMHDD 4K HDR pelicula completa, descargar Saw X (2023) WEB-DL 4K HDR SUB – CMHDD 4K HDR gratis en mega.

Saw X (2023) WEB-DL 4K HDR SUB – CMHDD pelicula full hd, Saw X (2023) WEB-DL 4K HDR SUB – CMHDD mega latino, Saw X (2023) WEB-DL 4K HDR SUB – CMHDD 4k latino, Saw X (2023) WEB-DL 4K HDR SUB – CMHDD pelicula completa, Saw X (2023) WEB-DL 4K HDR SUB – CMHDD descargar gratis, descargar Saw X (2023) WEB-DL 4K HDR SUB – CMHDD pelicula latino, Saw X (2023) WEB-DL 4K HDR SUB – CMHDD 1 link mega, Saw X (2023) WEB-DL 4K HDR SUB – CMHDD 1 link google drive, Saw X (2023) WEB-DL 4K HDR SUB – CMHDD hd 1080p latino.
Comentarios 0