×

¿Problemas para descargar con Mozilla, EDGE? Deshabilita la opción "Abrir vinculos en una pestaña nueva" tal como lo muestra ésta imagen.

Saw VII: The Final Chapter (2010) UNRATED REMUX 1080p Latino-CMHDD

198 vistas

Información de Saw VII: The Final Chapter (2010) UNRATED REMUX 1080p Latino-CMHDD

Datos de la película

  • Calidad: Full 1080p
  • Audio: Se especifica abajo de la Sinopsis
  • Subtitulos: Español Latino SRT- FORZADOS SRT
  • Resolución: 1920x1080p
  • Formato: MKV
  • Codec: H.264
  • Encoder: CinefiloCool
  • Mediainfo: Clic para Mostrar Datos Ver
  • Saw VII (2010) UNRATED REMUX 1080p Latino-CMHDD.mkv
    Format                      : Matroska
    Format version              : Version 4
    File size                   : 20.7 GiB
    Duration                    : 1 h 30 min
    Overall bit rate mode       : Variable
    Overall bit rate            : 32.8 Mb/s
    Movie name                  : Saw VII The Final Chapter (2010) CinemaniaHDD.Net
    Encoded date                : UTC 2021-11-03 07:56:51
    Writing application         : mkvmerge v56.1.0 ('My Friend') 64-bit
    Writing library             : libebml v1.4.2 + libmatroska v1.6.4
    Attachments                 : CINEMANIAHD.png

    Video
    ID                          : 1
    Format                      : AVC
    Format/Info                 : Advanced Video Codec
    Format profile              : High@L4.1
    Format settings             : CABAC / 4 Ref Frames
    Format settings, CABAC      : Yes
    Format settings, Reference  : 4 frames
    Format settings, GOP        : M=1, N=12
    Codec ID                    : V_MPEG4/ISO/AVC
    Duration                    : 1 h 30 min
    Bit rate mode               : Variable
    Bit rate                    : 27.0 Mb/s
    Maximum bit rate            : 30.0 Mb/s
    Width                       : 1 920 pixels
    Height                      : 1 080 pixels
    Display aspect ratio        : 16:9
    Frame rate mode             : Constant
    Frame rate                  : 23.976 (24000/1001) FPS
    Color space                 : YUV
    Chroma subsampling          : 4:2:0
    Bit depth                   : 8 bits
    Scan type                   : Progressive
    Bits/(Pixel*Frame)          : 0.542
    Stream size                 : 17.0 GiB (82%)
    Title                       : REMUX HD1080p [CinemaniaHDD]
    Language                    : English
    Default                     : Yes
    Forced                      : Yes

    Audio #1
    ID                          : 2
    Format                      : AC-3
    Format/Info                 : Audio Coding 3
    Commercial name             : Dolby Digital
    Codec ID                    : A_AC3
    Duration                    : 1 h 30 min
    Bit rate mode               : Constant
    Bit rate                    : 256 kb/s
    Channel(s)                  : 2 channels
    Channel layout              : L R
    Sampling rate               : 48.0 kHz
    Frame rate                  : 31.250 FPS (1536 SPF)
    Compression mode            : Lossy
    Stream size                 : 165 MiB (1%)
    Title                       : Español Latino [CinemaniaHDD]
    Language                    : Spanish
    Service kind                : Complete Main
    Default                     : Yes
    Forced                      : Yes

    Audio #2
    ID                          : 3
    Format                      : DTS XLL
    Format/Info                 : Digital Theater Systems
    Commercial name             : DTS-HD Master Audio
    Codec ID                    : A_DTS
    Duration                    : 1 h 30 min
    Bit rate mode               : Variable
    Bit rate                    : 5 550 kb/s
    Channel(s)                  : 8 channels
    Channel layout              : C L R LFE Lb Rb Lss Rss
    Sampling rate               : 48.0 kHz
    Frame rate                  : 93.750 FPS (512 SPF)
    Bit depth                   : 24 bits
    Compression mode            : Lossless
    Stream size                 : 3.50 GiB (17%)
    Title                       : Ingles [CinemaniaHDD]
    Language                    : English
    Default                     : No
    Forced                      : No

    Text #1
    ID                          : 4
    Format                      : UTF-8
    Codec ID                    : S_TEXT/UTF8
    Codec ID/Info               : UTF-8 Plain Text
    Duration                    : 1 h 12 min
    Bit rate                    : 0 b/s
    Count of elements           : 18
    Stream size                 : 448 Bytes (0%)
    Title                       : Forzados-SRT [CinemaniaHDD]
    Language                    : Spanish
    Default                     : Yes
    Forced                      : Yes

    Text #2
    ID                          : 5
    Format                      : UTF-8
    Codec ID                    : S_TEXT/UTF8
    Codec ID/Info               : UTF-8 Plain Text
    Duration                    : 1 h 24 min
    Bit rate                    : 48 b/s
    Count of elements           : 1009
    Stream size                 : 29.8 KiB (0%)
    Title                       : Español-SRT [CinemaniaHDD]
    Language                    : Spanish
    Default                     : No
    Forced                      : No

    Text #3
    ID                          : 6
    Format                      : PGS
    Muxing mode                 : zlib
    Codec ID                    : S_HDMV/PGS
    Codec ID/Info               : Picture based subtitle format used on BDs/HD-DVDs
    Duration                    : 1 h 24 min
    Bit rate                    : 27.0 kb/s
    Count of elements           : 1982
    Stream size                 : 16.3 MiB (0%)
    Title                       : Ingles [CinemaniaHDD]
    Language                    : English
    Default                     : No
    Forced                      : No

    Menu
    00:00:00.000                : Chapter 01
    00:05:13.479                : Chapter 02
    00:12:59.653                : Chapter 03
    00:17:17.786                : Chapter 04
    00:22:08.744                : Chapter 05
    00:27:31.232                : Chapter 06
    00:36:08.833                : Chapter 07
    00:43:07.209                : Chapter 08
    00:47:57.249                : Chapter 09
    00:52:03.829                : Chapter 10
    00:57:13.930                : Chapter 11
    01:03:13.080                : Chapter 12
    01:10:32.895                : Chapter 13
    01:14:18.370                : Chapter 14
    01:19:06.158                : Chapter 15
    01:23:51.818                : Chapter 16

  • Peso: 20.7 GiB

Sinopsis

Descargar Saw VII: The Final Chapter (2010) UNRATED REMUX 1080p Latino-CMHDD. Mientras una mortal batalla explota sobre el brutal legado de Jigsaw, un grupo de supervivientes busca el apoyo del gurú de la autoayuda Bobby Dagen, un hombre que con sus oscuros secretos provocará una nueva ola de terror.

Audio Español Latino AC3 2.0 DVD – Ingles DTS-HD 7.1 Bluray
DISPONIBLE SOLO PARA VIP!!

Nota:
– Una ultima vez en la que tomo de fuente el Audio latino adaptado de la version ya subida (creditos al editor original).
– Para esta ultima parte a la que se le hizo version «unrated» practicamente vuelve a ser como en la primera, agregando solamente y nada mas que mas violencia. muy agradecido por los que quieren ver mas sangre, en cambio aquellos que nos gusta ver un poco mas de historia nos quedamos practicamente igual.
– Tal como en la primer parte no vi necesidad de Subtitulos Forzados  en esas extendidas de hecho no noté ningun caso de que los requiriera, pero eso claro, en base a los reviews y comparaciones que encontre.

Ficha técnica

Video trailer de la película

Enlaces de descarga

Rip de Bluray

Descargar Saw VII: The Final Chapter (2010) UNRATED REMUX 1080p Latino-CMHDD


Aportes de DPeliculasHDmega la pass es:dpeliculashdmega.org Aportes de CinemaniaHD la pass es:cinemaniahdd.com
Guardado en : Crimen , Remux , Terror

Películas relacionadas

  • Paradise Highway (2022) HD 1080p Latino

    Paradise Highway (2022) HD 1080p Latino

    2022
    Paradise Highway (2022) HD 1080p Latino

    1h 55m 2022

    Descargar Paradise Highway (2022) HD 1080p Latino. Un camionero se ha visto obligado a pasar de contrabando...

    Director: Anna Gutto

    Género: Crimen

    Actores: Xavier Scott Evans

  • Paradise Highway (2022) PLACEBO Full HD 1080p Latino

    Paradise Highway (2022) PLACEBO Full HD 1080p Latino

    2022
    Paradise Highway (2022) PLACEBO Full HD 1080p Latino

    1h 55m 2022

    Descargar Paradise Highway (2022) PLACEBO Full HD 1080p Latino. Un camionero se ha visto obligado a pasar...

    Director: Anna Gutto

    Género: Crimen

    Actores: Xavier Scott Evans

  • Paradise Highway (2022) REMUX 1080p Latino

    Paradise Highway (2022) REMUX 1080p Latino

    2022
    Paradise Highway (2022) REMUX 1080p Latino

    1h 55m 2022

    Descargar Paradise Highway (2022) REMUX 1080p Latino. Un camionero se ha visto obligado a pasar de contrabando...

    Director: Anna Gutto

    Género: Crimen

    Actores: Xavier Scott Evans

descargar Saw VII: The Final Chapter (2010) UNRATED REMUX 1080p Latino-CMHDD Full 1080p 1080p gratis, Saw VII: The Final Chapter (2010) UNRATED REMUX 1080p Latino-CMHDD Full 1080p mega 1 link, Saw VII: The Final Chapter (2010) UNRATED REMUX 1080p Latino-CMHDD Full 1080p pelicula completa, descargar Saw VII: The Final Chapter (2010) UNRATED REMUX 1080p Latino-CMHDD Full 1080p gratis en mega.

Saw VII: The Final Chapter (2010) UNRATED REMUX 1080p Latino-CMHDD pelicula full hd, Saw VII: The Final Chapter (2010) UNRATED REMUX 1080p Latino-CMHDD mega latino, Saw VII: The Final Chapter (2010) UNRATED REMUX 1080p Latino-CMHDD 4k latino, Saw VII: The Final Chapter (2010) UNRATED REMUX 1080p Latino-CMHDD pelicula completa, Saw VII: The Final Chapter (2010) UNRATED REMUX 1080p Latino-CMHDD descargar gratis, descargar Saw VII: The Final Chapter (2010) UNRATED REMUX 1080p Latino-CMHDD pelicula latino, Saw VII: The Final Chapter (2010) UNRATED REMUX 1080p Latino-CMHDD 1 link mega, Saw VII: The Final Chapter (2010) UNRATED REMUX 1080p Latino-CMHDD 1 link google drive, Saw VII: The Final Chapter (2010) UNRATED REMUX 1080p Latino-CMHDD hd 1080p latino.
Comentarios 0