×

¿Problemas para descargar con Mozilla, EDGE? Deshabilita la opción "Abrir vinculos en una pestaña nueva" tal como lo muestra ésta imagen.

Saw VI (2009) Unrated Director’s Cut REMUX 1080p Latino-CMHDD

153 vistas

Información de Saw VI (2009) Unrated Director’s Cut REMUX 1080p Latino-CMHDD

Datos de la película

  • Calidad: Full 1080p
  • Audio: Español Latino AC3 2.0 DVD - Ingles DTS 5.1 BLURAY
  • Subtitulos: Español Latino SRT - Ingles SRT
  • Resolución: 1920x1080p
  • Formato: MKV
  • Codec: H.264
  • Encoder: CinefiloCool
  • Mediainfo: Clic para Mostrar Datos Ver
  • Saw VI (2009) UNRATED DC REMUX 1080p Latino-CMHDD.mkv
    Format                      : Matroska
    Format version              : Version 4
    File size                   : 20.2 GiB
    Duration                    : 1 h 31 min
    Overall bit rate mode       : Variable
    Overall bit rate            : 31.5 Mb/s
    Movie name                  : Saw VI (2009) CinemaniaHDD.Net
    Encoded date                : UTC 2021-11-03 07:12:56
    Writing application         : mkvmerge v56.1.0 ('My Friend') 64-bit
    Writing library             : libebml v1.4.2 + libmatroska v1.6.4
    Attachments                 : CINEMANIAHD.png

    Video
    ID                          : 1
    Format                      : AVC
    Format/Info                 : Advanced Video Codec
    Format profile              : High@L4.1
    Format settings             : CABAC / 2 Ref Frames
    Format settings, CABAC      : Yes
    Format settings, Reference  : 2 frames
    Codec ID                    : V_MPEG4/ISO/AVC
    Duration                    : 1 h 31 min
    Bit rate mode               : Variable
    Bit rate                    : 28.6 Mb/s
    Width                       : 1 920 pixels
    Height                      : 1 080 pixels
    Display aspect ratio        : 16:9
    Frame rate mode             : Constant
    Frame rate                  : 23.976 (24000/1001) FPS
    Color space                 : YUV
    Chroma subsampling          : 4:2:0
    Bit depth                   : 8 bits
    Scan type                   : Progressive
    Bits/(Pixel*Frame)          : 0.575
    Stream size                 : 18.3 GiB (91%)
    Title                       : REMUX HD1080p [CinemaniaHDD]
    Default                     : Yes
    Forced                      : Yes

    Audio #1
    ID                          : 2
    Format                      : AC-3
    Format/Info                 : Audio Coding 3
    Commercial name             : Dolby Digital
    Codec ID                    : A_AC3
    Duration                    : 1 h 31 min
    Bit rate mode               : Constant
    Bit rate                    : 256 kb/s
    Channel(s)                  : 2 channels
    Channel layout              : L R
    Sampling rate               : 48.0 kHz
    Frame rate                  : 31.250 FPS (1536 SPF)
    Compression mode            : Lossy
    Stream size                 : 168 MiB (1%)
    Title                       : Español Latino [CinemaniaHDD]
    Language                    : Spanish
    Service kind                : Complete Main
    Default                     : Yes
    Forced                      : Yes

    Audio #2
    ID                          : 3
    Format                      : DTS ES XXCH XLL
    Format/Info                 : Digital Theater Systems
    Commercial name             : DTS-HD Master Audio
    Codec ID                    : A_DTS
    Duration                    : 1 h 31 min
    Bit rate mode               : Variable
    Bit rate                    : 2 672 kb/s
    Channel(s)                  : 7 channels
    Channel layout              : C L R Ls Rs LFE Cb
    Sampling rate               : 48.0 kHz
    Frame rate                  : 93.750 FPS (512 SPF)
    Bit depth                   : 16 bits
    Compression mode            : Lossless
    Stream size                 : 1.71 GiB (8%)
    Title                       : Ingles [CinemaniaHDD]
    Language                    : English
    Default                     : No
    Forced                      : No

    Text #1
    ID                          : 4
    Format                      : UTF-8
    Codec ID                    : S_TEXT/UTF8
    Codec ID/Info               : UTF-8 Plain Text
    Duration                    : 33 min 13 s
    Bit rate                    : 2 b/s
    Count of elements           : 17
    Stream size                 : 506 Bytes (0%)
    Title                       : Forzados-SRT [CinemaniaHDD]
    Language                    : Spanish
    Default                     : Yes
    Forced                      : Yes

    Text #2
    ID                          : 5
    Format                      : UTF-8
    Codec ID                    : S_TEXT/UTF8
    Codec ID/Info               : UTF-8 Plain Text
    Duration                    : 1 h 29 min
    Bit rate                    : 56 b/s
    Count of elements           : 892
    Stream size                 : 37.1 KiB (0%)
    Title                       : Español-SRT [CinemaniaHDD]
    Language                    : Spanish
    Default                     : No
    Forced                      : No

    Text #3
    ID                          : 6
    Format                      : UTF-8
    Codec ID                    : S_TEXT/UTF8
    Codec ID/Info               : UTF-8 Plain Text
    Duration                    : 1 h 29 min
    Bit rate                    : 53 b/s
    Count of elements           : 857
    Stream size                 : 35.1 KiB (0%)
    Title                       : Ingles [CinemaniaHDD]
    Language                    : English
    Default                     : No
    Forced                      : No

    Menu
    00:00:00.000                : 00:00:00.000
    00:06:14.374                : 00:06:14.374
    00:08:09.906                : 00:08:09.906
    00:12:06.893                : 00:12:06.893
    00:15:08.116                : 00:15:08.116
    00:17:10.363                : 00:17:10.363
    00:20:44.368                : 00:20:44.368
    00:24:39.269                : 00:24:39.269
    00:29:33.689                : 00:29:33.689
    00:35:32.297                : 00:35:32.297
    00:37:14.149                : 00:37:14.149
    00:43:34.570                : 00:43:34.570
    00:48:25.319                : 00:48:25.319
    00:52:42.076                : 00:52:42.076
    00:56:02.025                : 00:56:02.025
    00:57:36.703                : 00:57:36.703
    01:01:32.939                : 01:01:32.939
    01:03:20.714                : 01:03:20.714
    01:08:46.372                : 01:08:46.372
    01:12:13.246                : 01:12:13.246
    01:14:49.193                : 01:14:49.193
    01:18:32.041                : 01:18:32.041
    01:21:36.350                : 01:21:36.350
    01:24:44.997                : 01:24:44.997
    01:26:02.866                : 01:26:02.866

  • Peso: 20.2 GiB

Sinopsis

Descargar Saw VI (2009) Unrated Director’s Cut REMUX 1080p Latino-CMHDD. El Agente Especial Strahm está muerto, y el Detective Hoffman es el sucesor de Jigsaw y su juego macabro. Sin embargo, cuando la Brigada de Investigación Criminal comienza a estrechar el cerco a Hoffman, lo forzarán a poner en marcha el juego complejo de Jigsaw, y por fin a entenderlo por completo… Sexta entrega de la sangrienta saga Saw.En octubre de 2009 la distribuidora decidió cancelar su estreno en España a causa de la controvertida clasificación X que recibió del Ministerio de Cultura. Finalmente, la película llega a las salas españolas en octubre de 2010, con un montaje específico de los productores, que han eliminado 3 minutos de metraje, suprimiendo las escenas más violentas de la cinta.

DISPONIBLE SOLO PARA VIP!!

Nota:
– Una vez mas el Audio latino lo de tome de la version ya subida y parece ser adaptado (creditos al editor original).
– De igual forma la sexta parte podria considerarse un verdadero corte del director, por que los cambios no son necesariamente censuras de la MPAA. ya que a la version R-Rated (Teatral)  apenas y se le recortaron escenas violentas. Los cambios radican principalmente en secuencias diferentes o cambios ocasionales en la historia.
– Nuevamente dejo Subtitulos Forzados para las pocas escenas donde se requiera generados  y/o sincronizados desde cero por mi en base a los reviews y comparaciones que encontre.
– Como nota Adicional, es la primera vez que se incluye escena post creditos, esto unicamente en la version Unrated.

Ficha técnica

Video trailer de la película

Enlaces de descarga

Rip de Bluray

Descargar Saw VI (2009) Unrated Director’s Cut REMUX 1080p Latino-CMHDD


Aportes de DPeliculasHDmega la pass es:dpeliculashdmega.org Aportes de CinemaniaHD la pass es:cinemaniahdd.com
Guardado en : Misterio , Remux , Terror

Películas relacionadas

  • Paradise Highway (2022) REMUX 1080p Latino

    Paradise Highway (2022) REMUX 1080p Latino

    2022
    Paradise Highway (2022) REMUX 1080p Latino

    1h 55m 2022

    Descargar Paradise Highway (2022) REMUX 1080p Latino. Un camionero se ha visto obligado a pasar de contrabando...

    Director: Anna Gutto

    Género: Crimen

    Actores: Xavier Scott Evans

  • M3GAN (2023) AMZN WEB-DL 4K UHD HDR Latino

    M3GAN (2023) AMZN WEB-DL 4K UHD HDR Latino

    2022
    M3GAN (2023) AMZN WEB-DL 4K UHD HDR Latino

    1h 42m 2022

    Descargar M3GAN (2023) AMZN WEB-DL 4K UHD HDR Latino. Cuando Gemma se convierte en la cuidadora de su...

    Director: Stephen W. Moore

    Género: 4K HDR

    Actores: Violet McGraw

  • M3GAN (2022) MA WEB-DL 1080p Latino

    M3GAN (2022) MA WEB-DL 1080p Latino

    2022
    M3GAN (2022) MA WEB-DL 1080p Latino

    1h 42m 2022

    Descargar M3GAN (2022) MA WEB-DL 1080p Latino. Cuando Gemma se convierte en la cuidadora de su sobrina...

    Director: Stephen W. Moore

    Género: Ciencia ficción

    Actores: Violet McGraw

descargar Saw VI (2009) Unrated Director’s Cut REMUX 1080p Latino-CMHDD Full 1080p 1080p gratis, Saw VI (2009) Unrated Director’s Cut REMUX 1080p Latino-CMHDD Full 1080p mega 1 link, Saw VI (2009) Unrated Director’s Cut REMUX 1080p Latino-CMHDD Full 1080p pelicula completa, descargar Saw VI (2009) Unrated Director’s Cut REMUX 1080p Latino-CMHDD Full 1080p gratis en mega.

Saw VI (2009) Unrated Director’s Cut REMUX 1080p Latino-CMHDD pelicula full hd, Saw VI (2009) Unrated Director’s Cut REMUX 1080p Latino-CMHDD mega latino, Saw VI (2009) Unrated Director’s Cut REMUX 1080p Latino-CMHDD 4k latino, Saw VI (2009) Unrated Director’s Cut REMUX 1080p Latino-CMHDD pelicula completa, Saw VI (2009) Unrated Director’s Cut REMUX 1080p Latino-CMHDD descargar gratis, descargar Saw VI (2009) Unrated Director’s Cut REMUX 1080p Latino-CMHDD pelicula latino, Saw VI (2009) Unrated Director’s Cut REMUX 1080p Latino-CMHDD 1 link mega, Saw VI (2009) Unrated Director’s Cut REMUX 1080p Latino-CMHDD 1 link google drive, Saw VI (2009) Unrated Director’s Cut REMUX 1080p Latino-CMHDD hd 1080p latino.
Comentarios 0