×

¿Problemas para descargar con Mozilla, EDGE? Deshabilita la opción "Abrir vinculos en una pestaña nueva" tal como lo muestra ésta imagen.

Saw VI (2009) Unrated Director’s Cut 1080p Latino

254 vistas

Información de Saw VI (2009) Unrated Director’s Cut 1080p Latino

Datos de la película

  • Calidad: 1080p
  • Audio: Español Latino AC3 2.0 DVD - Ingles AC3 5.1 BLURAY
  • Subtitulos: Español Latino SRT - Ingles SRT
  • Resolución: 1920x1040p
  • Formato: MKV
  • Codec: H.264
  • Encoder: CinefiloCool
  • Mediainfo: Clic para Mostrar Datos Ver
  • Saw VI (2009) UNRATED DC 1080p Latino-CMHDD.mkv
    Format                      : Matroska
    Format version              : Version 4
    File size                   : 3.34 GiB
    Duration                    : 1 h 31 min
    Overall bit rate            : 5 205 kb/s
    Movie name                  : Saw VI (2009) CinemaniaHDD.Net
    Encoded date                : UTC 2023-04-15 21:43:51
    Writing application         : mkvmerge v56.1.0 ('My Friend') 64-bit
    Writing library             : libebml v1.4.2 + libmatroska v1.6.4
    Attachments                 : CINEMANIAHD.png

    Video
    ID                          : 1
    Format                      : AVC
    Format/Info                 : Advanced Video Codec
    Format profile              : High@L4.2
    Format settings             : CABAC / 4 Ref Frames
    Format settings, CABAC      : Yes
    Format settings, Reference  : 4 frames
    Codec ID                    : V_MPEG4/ISO/AVC
    Duration                    : 1 h 31 min
    Bit rate                    : 4 500 kb/s
    Width                       : 1 920 pixels
    Height                      : 1 040 pixels
    Display aspect ratio        : 1.85:1
    Frame rate mode             : Constant
    Frame rate                  : 23.976 (24000/1001) FPS
    Color space                 : YUV
    Chroma subsampling          : 4:2:0
    Bit depth                   : 8 bits
    Scan type                   : Progressive
    Bits/(Pixel*Frame)          : 0.094
    Stream size                 : 2.89 GiB (86%)
    Title                       : HD1080p [CinemaniaHDD]
    Writing library             : x264 core 163 r3059 b684ebe0
    Encoding settings           : cabac=1 / ref=4 / deblock=1:-2:-2 / analyse=0x3:0x133 / me=umh / subme=9 / psy=1 / psy_rd=1.00:0.25 / mixed_ref=1 / me_range=16 / chroma_me=1 / trellis=2 / 8x8dct=1 / cqm=0 / deadzone=6,6 / fast_pskip=1 / chroma_qp_offset=-4 / threads=24 / lookahead_threads=2 / sliced_threads=0 / nr=0 / decimate=0 / interlaced=0 / bluray_compat=0 / constrained_intra=0 / bframes=3 / b_pyramid=2 / b_adapt=2 / b_bias=0 / direct=3 / weightb=1 / open_gop=0 / weightp=2 / keyint=240 / keyint_min=24 / scenecut=40 / intra_refresh=0 / rc_lookahead=60 / rc=2pass / mbtree=1 / bitrate=4500 / ratetol=1.0 / qcomp=0.80 / qpmin=0 / qpmax=69 / qpstep=4 / cplxblur=20.0 / qblur=0.5 / vbv_maxrate=62500 / vbv_bufsize=78125 / nal_hrd=none / filler=0 / ip_ratio=1.10 / aq=1:0.50
    Default                     : Yes
    Forced                      : Yes
    Color range                 : Limited
    Color primaries             : BT.709
    Transfer characteristics    : BT.709
    Matrix coefficients         : BT.709

    Audio #1
    ID                          : 2
    Format                      : AC-3
    Format/Info                 : Audio Coding 3
    Commercial name             : Dolby Digital
    Codec ID                    : A_AC3
    Duration                    : 1 h 31 min
    Bit rate mode               : Constant
    Bit rate                    : 256 kb/s
    Channel(s)                  : 2 channels
    Channel layout              : L R
    Sampling rate               : 48.0 kHz
    Frame rate                  : 31.250 FPS (1536 SPF)
    Compression mode            : Lossy
    Delay relative to video     : -5 ms
    Stream size                 : 168 MiB (5%)
    Title                       : Español Latino [CinemaniaHDD]
    Language                    : Spanish
    Service kind                : Complete Main
    Default                     : Yes
    Forced                      : Yes

    Audio #2
    ID                          : 3
    Format                      : AC-3
    Format/Info                 : Audio Coding 3
    Commercial name             : Dolby Digital
    Codec ID                    : A_AC3
    Duration                    : 1 h 31 min
    Bit rate mode               : Constant
    Bit rate                    : 448 kb/s
    Channel(s)                  : 6 channels
    Channel layout              : L R C LFE Ls Rs
    Sampling rate               : 48.0 kHz
    Frame rate                  : 31.250 FPS (1536 SPF)
    Compression mode            : Lossy
    Delay relative to video     : -5 ms
    Stream size                 : 294 MiB (9%)
    Title                       : Ingles [CinemaniaHDD]
    Language                    : English
    Service kind                : Complete Main
    Default                     : No
    Forced                      : No

    Text #1
    ID                          : 4
    Format                      : UTF-8
    Codec ID                    : S_TEXT/UTF8
    Codec ID/Info               : UTF-8 Plain Text
    Duration                    : 33 min 13 s
    Bit rate                    : 2 b/s
    Count of elements           : 17
    Stream size                 : 506 Bytes (0%)
    Title                       : Forzados-SRT [CinemaniaHDD]
    Language                    : Spanish
    Default                     : Yes
    Forced                      : Yes

    Text #2
    ID                          : 5
    Format                      : UTF-8
    Codec ID                    : S_TEXT/UTF8
    Codec ID/Info               : UTF-8 Plain Text
    Duration                    : 1 h 29 min
    Bit rate                    : 56 b/s
    Count of elements           : 892
    Stream size                 : 37.1 KiB (0%)
    Title                       : Español-SRT [CinemaniaHDD]
    Language                    : Spanish
    Default                     : No
    Forced                      : No

    Text #3
    ID                          : 6
    Format                      : UTF-8
    Codec ID                    : S_TEXT/UTF8
    Codec ID/Info               : UTF-8 Plain Text
    Duration                    : 1 h 29 min
    Bit rate                    : 53 b/s
    Count of elements           : 857
    Stream size                 : 35.1 KiB (0%)
    Title                       : Ingles [CinemaniaHDD]
    Language                    : English
    Default                     : No
    Forced                      : No

    Menu
    00:00:00.000                : 00:00:00.000
    00:06:14.374                : 00:06:14.374
    00:08:09.906                : 00:08:09.906
    00:12:06.893                : 00:12:06.893
    00:15:08.116                : 00:15:08.116
    00:17:10.363                : 00:17:10.363
    00:20:44.368                : 00:20:44.368
    00:24:39.269                : 00:24:39.269
    00:29:33.689                : 00:29:33.689
    00:35:32.297                : 00:35:32.297
    00:37:14.149                : 00:37:14.149
    00:43:34.570                : 00:43:34.570
    00:48:25.319                : 00:48:25.319
    00:52:42.076                : 00:52:42.076
    00:56:02.025                : 00:56:02.025
    00:57:36.703                : 00:57:36.703
    01:01:32.939                : 01:01:32.939
    01:03:20.714                : 01:03:20.714
    01:08:46.372                : 01:08:46.372
    01:12:13.246                : 01:12:13.246
    01:14:49.193                : 01:14:49.193
    01:18:32.041                : 01:18:32.041
    01:21:36.350                : 01:21:36.350
    01:24:44.997                : 01:24:44.997
    01:26:02.866                : 01:26:02.866

  • Peso: 3.34 GiB

Sinopsis

Descargar Saw VI (2009) Unrated Director’s Cut 1080p Latino. El Agente Especial Strahm está muerto, y el Detective Hoffman es el sucesor de Jigsaw y su juego macabro. Sin embargo, cuando la Brigada de Investigación Criminal comienza a estrechar el cerco a Hoffman, lo forzarán a poner en marcha el juego complejo de Jigsaw, y por fin a entenderlo por completo… Sexta entrega de la sangrienta saga Saw.En octubre de 2009 la distribuidora decidió cancelar su estreno en España a causa de la controvertida clasificación X que recibió del Ministerio de Cultura. Finalmente, la película llega a las salas españolas en octubre de 2010, con un montaje específico de los productores, que han eliminado 3 minutos de metraje, suprimiendo las escenas más violentas de la cinta.

Ficha técnica

Video trailer de la película

Enlaces de descarga

Rip de Bluray

Descargar Saw VI (2009) Unrated Director’s Cut 1080p Latino




Aportes de DPeliculasHDmega la pass es:dpeliculashdmega.org Aportes de CinemaniaHD la pass es:cinemaniahdd.com Aportes recientes:cinemaniahdd.net
Guardado en : HD 1080p , Misterio , Terror
Etiquetado en :

Películas relacionadas

  • Milagros Inesperados (1999) 1080p Latino-CMHDD

    Milagros Inesperados (1999) 1080p Latino-CMHDD

    1999
    Milagros Inesperados (1999) 1080p Latino-CMHDD

    3h 9m 1999

    Descargar Milagros Inesperados (1999) 1080p Latino-CMHDD. En el sur de los Estados Unidos, en plena Depresión,...

    Director: Susan Malerstein

    Género: Crimen

    Actores: William Sadler

  • Wanted Man (2024) HD 1080p Latino

    Wanted Man (2024) HD 1080p Latino

    2024
    Wanted Man (2024) HD 1080p Latino

    1h 25m 2024

    Descargar Wanted Man (2024) HD 1080p Latino. Sigue a un oficial de policía que debe recuperar a un testigo...

    Director: Kevin Leslie

    Género: Acción

    Actores: Xzavier Estrada

  • Strictly Confidential (2024) WEB-DL 1080p Latino

    Strictly Confidential (2024) WEB-DL 1080p Latino

    2024
    Strictly Confidential (2024) WEB-DL 1080p Latino

    1h 28m 2024

    Descargar Strictly Confidential (2024) WEB-DL 1080p Latino. Una joven atormentada se ve atraída por...

    Director: Damian Hurley

    Género: Misterio

    Actores: Thomas Downey

  • La Otra Cara de Dorian (2023) WEB-DL 1080p Latino

    La Otra Cara de Dorian (2023) WEB-DL 1080p Latino

    2023
    La Otra Cara de Dorian (2023) WEB-DL 1080p Latino

    1h 40m 2023

    Descargar La Otra Cara de Dorian (2023) WEB-DL 1080p Latino. Una versión moderna del cuento de Oscar...

    Director: Richard John Taylor

    Género: Drama

    Actores: Triana Terry

descargar Saw VI (2009) Unrated Director’s Cut 1080p Latino 1080p 1080p gratis, Saw VI (2009) Unrated Director’s Cut 1080p Latino 1080p mega 1 link, Saw VI (2009) Unrated Director’s Cut 1080p Latino 1080p pelicula completa, descargar Saw VI (2009) Unrated Director’s Cut 1080p Latino 1080p gratis en mega.

Saw VI (2009) Unrated Director’s Cut 1080p Latino pelicula full hd, Saw VI (2009) Unrated Director’s Cut 1080p Latino mega latino, Saw VI (2009) Unrated Director’s Cut 1080p Latino 4k latino, Saw VI (2009) Unrated Director’s Cut 1080p Latino pelicula completa, Saw VI (2009) Unrated Director’s Cut 1080p Latino descargar gratis, descargar Saw VI (2009) Unrated Director’s Cut 1080p Latino pelicula latino, Saw VI (2009) Unrated Director’s Cut 1080p Latino 1 link mega, Saw VI (2009) Unrated Director’s Cut 1080p Latino 1 link google drive, Saw VI (2009) Unrated Director’s Cut 1080p Latino hd 1080p latino.
Comentarios 0