×

¿Problemas para descargar con Mozilla, EDGE? Deshabilita la opción "Abrir vinculos en una pestaña nueva" tal como lo muestra ésta imagen.

Saw V (2008) Unrated Director’s Cut REMUX 1080p Latino-CMHDD

157 vistas

Información de Saw V (2008) Unrated Director’s Cut REMUX 1080p Latino-CMHDD

Datos de la película

  • Calidad: Full 1080p
  • Audio: Español Latino AC3 5.1 DVD - Ingles DTS 5.1 BLURAY
  • Subtitulos: Español Latino SRT - Ingles SRT
  • Resolución: 1920x1080p
  • Formato: MKV
  • Codec: H.264
  • Encoder: CinefiloCool
  • Mediainfo: Clic para Mostrar Datos Ver
  • Saw V (2008) UNRATED DC REMUX 1080p Latino-CMHDD.mkv
    Format                      : Matroska
    Format version              : Version 4
    File size                   : 17.9 GiB
    Duration                    : 1 h 35 min
    Overall bit rate mode       : Variable
    Overall bit rate            : 26.9 Mb/s
    Movie name                  : Saw V (2008) CinemaniaHDD.Net
    Encoded date                : UTC 2021-11-02 08:29:09
    Writing application         : mkvmerge v56.1.0 ('My Friend') 64-bit
    Writing library             : libebml v1.4.2 + libmatroska v1.6.4
    Attachments                 : CINEMANIAHD.png

    Video
    ID                          : 1
    Format                      : VC-1
    Format profile              : Advanced@L3
    Codec ID                    : V_MS/VFW/FOURCC / WVC1
    Codec ID/Hint               : Microsoft
    Duration                    : 1 h 35 min
    Bit rate                    : 23.9 Mb/s
    Width                       : 1 920 pixels
    Height                      : 1 080 pixels
    Display aspect ratio        : 16:9
    Frame rate mode             : Constant
    Frame rate                  : 23.976 (24000/1001) FPS
    Color space                 : YUV
    Chroma subsampling          : 4:2:0
    Bit depth                   : 8 bits
    Scan type                   : Progressive
    Compression mode            : Lossy
    Bits/(Pixel*Frame)          : 0.481
    Stream size                 : 15.9 GiB (89%)
    Title                       : REMUX HD1080p [CinemaniaHDD]
    Default                     : Yes
    Forced                      : Yes

    Audio #1
    ID                          : 2
    Format                      : AC-3
    Format/Info                 : Audio Coding 3
    Commercial name             : Dolby Digital
    Codec ID                    : A_AC3
    Duration                    : 1 h 35 min
    Bit rate mode               : Constant
    Bit rate                    : 448 kb/s
    Channel(s)                  : 6 channels
    Channel layout              : L R C LFE Ls Rs
    Sampling rate               : 48.0 kHz
    Frame rate                  : 31.250 FPS (1536 SPF)
    Compression mode            : Lossy
    Stream size                 : 305 MiB (2%)
    Title                       : Español Latino [CinemaniaHDD]
    Language                    : Spanish
    Service kind                : Complete Main
    Default                     : Yes
    Forced                      : Yes

    Audio #2
    ID                          : 3
    Format                      : DTS ES XXCH XLL
    Format/Info                 : Digital Theater Systems
    Commercial name             : DTS-HD Master Audio
    Codec ID                    : A_DTS
    Duration                    : 1 h 35 min
    Bit rate mode               : Variable
    Bit rate                    : 2 504 kb/s
    Channel(s)                  : 7 channels
    Channel layout              : C L R Ls Rs LFE Cb
    Sampling rate               : 48.0 kHz
    Frame rate                  : 93.750 FPS (512 SPF)
    Bit depth                   : 16 bits
    Compression mode            : Lossless
    Stream size                 : 1.67 GiB (9%)
    Title                       : Ingles [CinemaniaHDD]
    Language                    : English
    Default                     : No
    Forced                      : No

    Text #1
    ID                          : 4
    Format                      : UTF-8
    Codec ID                    : S_TEXT/UTF8
    Codec ID/Info               : UTF-8 Plain Text
    Duration                    : 1 h 21 min
    Bit rate                    : 2 b/s
    Count of elements           : 53
    Stream size                 : 1.63 KiB (0%)
    Title                       : Forzados-SRT [CinemaniaHDD]
    Language                    : Spanish
    Default                     : Yes
    Forced                      : Yes

    Text #2
    ID                          : 5
    Format                      : UTF-8
    Codec ID                    : S_TEXT/UTF8
    Codec ID/Info               : UTF-8 Plain Text
    Duration                    : 1 h 27 min
    Bit rate                    : 44 b/s
    Count of elements           : 826
    Stream size                 : 28.9 KiB (0%)
    Title                       : Español-SRT [CinemaniaHDD]
    Language                    : Spanish
    Default                     : No
    Forced                      : No

    Text #3
    ID                          : 6
    Format                      : UTF-8
    Codec ID                    : S_TEXT/UTF8
    Codec ID/Info               : UTF-8 Plain Text
    Duration                    : 1 h 28 min
    Bit rate                    : 45 b/s
    Count of elements           : 822
    Stream size                 : 29.3 KiB (0%)
    Title                       : Ingles [CinemaniaHDD]
    Language                    : English
    Default                     : No
    Forced                      : No

    Menu
    00:00:00.000                : 00:00:00.000
    00:06:23.383                : 00:06:23.383
    00:09:22.729                : 00:09:22.729
    00:12:26.704                : 00:12:26.704
    00:15:36.936                : 00:15:36.936
    00:16:52.970                : 00:16:52.970
    00:22:14.291                : 00:22:14.291
    00:28:54.566                : 00:28:54.566
    00:34:45.000                : 00:34:45.000
    00:36:52.836                : 00:36:52.836
    00:39:09.222                : 00:39:09.222
    00:42:27.378                : 00:42:27.378
    00:49:52.698                : 00:49:52.698
    00:52:03.746                : 00:52:03.746
    00:53:05.182                : 00:53:05.182
    01:00:34.631                : 01:00:34.631
    01:05:41.271                : 01:05:41.271
    01:09:53.940                : 01:09:53.940
    01:11:45.051                : 01:11:45.051
    01:14:52.029                : 01:14:52.029
    01:17:21.470                : 01:17:21.470
    01:22:22.563                : 01:22:22.563
    01:25:42.721                : 01:25:42.721
    01:27:33.373                : 01:27:33.373

  • Peso: 17.9 GiB

Sinopsis

Descargar Saw V (2008) Unrated Director’s Cut REMUX 1080p Latino-CMHDD. Hoffman (Costas Mandylor) es la última persona viva para heredar el legado de Jigsaw (Tobin Bell). Pero cuando su secreto se ve amenazado, Hoffman debe iniciar la caza para eliminar todos los cabos sueltos. Nueva entrega de la saga dirigida por el diseñador de producción de las tres anteriores.

DISPONIBLE SOLO PARA VIP!!

Nota:
– El Audio latino una vez mas es adaptado y proviene de las versiones ya subidas (creditos al editor original).
– En la quinta parte el «Unrated director’s Cut» encaja muy bien porque aunque tiene mas metraje que la version teatral, esta ultima tiene escenas extras que por alguna razon se eliminaron del corte del director, el resto apenas es mencionable, con mas detalles a lo largo del metraje, o censuras de gore y violencia, logrando la vision de direccion realmente propia que creo es lo que se buscaba en esta version.
– Para las pocas escenas donde se requiera, generé y/o sincronicé desde cero los Subtitulos Forzados en base a los reviews y comparaciones que encontre.

Ficha técnica

Video trailer de la película

Enlaces de descarga

Rip de Bluray

Descargar Saw V (2008) Unrated Director’s Cut REMUX 1080p Latino-CMHDD


Aportes de DPeliculasHDmega la pass es:dpeliculashdmega.org Aportes de CinemaniaHD la pass es:cinemaniahdd.com
Guardado en : Crimen , Remux , Suspenso , Terror

Películas relacionadas

  • M3GAN (2023) AMZN WEB-DL 4K UHD HDR Latino

    M3GAN (2023) AMZN WEB-DL 4K UHD HDR Latino

    2022
    M3GAN (2023) AMZN WEB-DL 4K UHD HDR Latino

    1h 42m 2022

    Descargar M3GAN (2023) AMZN WEB-DL 4K UHD HDR Latino. Cuando Gemma se convierte en la cuidadora de su...

    Director: Stephen W. Moore

    Género: 4K HDR

    Actores: Violet McGraw

  • M3GAN (2022) MA WEB-DL 1080p Latino

    M3GAN (2022) MA WEB-DL 1080p Latino

    2022
    M3GAN (2022) MA WEB-DL 1080p Latino

    1h 42m 2022

    Descargar M3GAN (2022) MA WEB-DL 1080p Latino. Cuando Gemma se convierte en la cuidadora de su sobrina...

    Director: Stephen W. Moore

    Género: Ciencia ficción

    Actores: Violet McGraw

  • Mar de sangre (2022) WEB-DL 1080p Latino

    Mar de sangre (2022) WEB-DL 1080p Latino

    2022
    Mar de sangre (2022) WEB-DL 1080p Latino

    1h 27m 2022

    Descargar Mar de sangre (2022) WEB-DL 1080p Latino. Un grupo de amigos que disfrutan de un fin de semana...

    Director: James Nunn

    Género: Acción

    Actores: Thomas Michael Flynn

  • Noche sin paz (2022) PLACEBO Full HD 1080p Latino

    Noche sin paz (2022) PLACEBO Full HD 1080p Latino

    2022
    Noche sin paz (2022) PLACEBO Full HD 1080p Latino

    1h 41m 2022

    Descargar Noche sin paz (2022) PLACEBO Full HD 1080p Latino. Cuando un equipo de mercenarios irrumpe...

    Director: Tyshana Hobson

    Género: Acción

    Actores: Yoon Cha-Lee

descargar Saw V (2008) Unrated Director’s Cut REMUX 1080p Latino-CMHDD Full 1080p 1080p gratis, Saw V (2008) Unrated Director’s Cut REMUX 1080p Latino-CMHDD Full 1080p mega 1 link, Saw V (2008) Unrated Director’s Cut REMUX 1080p Latino-CMHDD Full 1080p pelicula completa, descargar Saw V (2008) Unrated Director’s Cut REMUX 1080p Latino-CMHDD Full 1080p gratis en mega.

Saw V (2008) Unrated Director’s Cut REMUX 1080p Latino-CMHDD pelicula full hd, Saw V (2008) Unrated Director’s Cut REMUX 1080p Latino-CMHDD mega latino, Saw V (2008) Unrated Director’s Cut REMUX 1080p Latino-CMHDD 4k latino, Saw V (2008) Unrated Director’s Cut REMUX 1080p Latino-CMHDD pelicula completa, Saw V (2008) Unrated Director’s Cut REMUX 1080p Latino-CMHDD descargar gratis, descargar Saw V (2008) Unrated Director’s Cut REMUX 1080p Latino-CMHDD pelicula latino, Saw V (2008) Unrated Director’s Cut REMUX 1080p Latino-CMHDD 1 link mega, Saw V (2008) Unrated Director’s Cut REMUX 1080p Latino-CMHDD 1 link google drive, Saw V (2008) Unrated Director’s Cut REMUX 1080p Latino-CMHDD hd 1080p latino.
Comentarios 0