×

¿Problemas para descargar con Mozilla, EDGE? Deshabilita la opción "Abrir vinculos en una pestaña nueva" tal como lo muestra ésta imagen.

Saw V (2008) Unrated Director’s Cut 1080p Latino

267 vistas

Información de Saw V (2008) Unrated Director’s Cut 1080p Latino

Datos de la película

  • Calidad: 1080p
  • Audio: Español Latino AC3 5.1 DVD - Ingles AC3 5.1 BLURAY
  • Subtitulos: Español Latino SRT - Ingles SRT
  • Resolución: 1920x1040p
  • Formato: MKV
  • Codec: H.264
  • Encoder: CinefiloCool
  • Mediainfo: Clic para Mostrar Datos Ver
  • Saw V (2008) UNRATED DC 1080p Latino-CMHDD.mkv
    Format                      : Matroska
    Format version              : Version 4
    File size                   : 3.59 GiB
    Duration                    : 1 h 35 min
    Overall bit rate            : 5 397 kb/s
    Movie name                  : Saw V (2008) CinemaniaHDD.Net
    Encoded date                : UTC 2023-04-15 21:28:07
    Writing application         : mkvmerge v56.1.0 ('My Friend') 64-bit
    Writing library             : libebml v1.4.2 + libmatroska v1.6.4
    Attachments                 : CINEMANIAHD.png

    Video
    ID                          : 1
    Format                      : AVC
    Format/Info                 : Advanced Video Codec
    Format profile              : High@L4.2
    Format settings             : CABAC / 4 Ref Frames
    Format settings, CABAC      : Yes
    Format settings, Reference  : 4 frames
    Codec ID                    : V_MPEG4/ISO/AVC
    Duration                    : 1 h 35 min
    Bit rate                    : 4 500 kb/s
    Width                       : 1 920 pixels
    Height                      : 1 040 pixels
    Display aspect ratio        : 1.85:1
    Frame rate mode             : Constant
    Frame rate                  : 23.976 (24000/1001) FPS
    Color space                 : YUV
    Chroma subsampling          : 4:2:0
    Bit depth                   : 8 bits
    Scan type                   : Progressive
    Bits/(Pixel*Frame)          : 0.094
    Stream size                 : 2.99 GiB (83%)
    Title                       : HD1080p [CinemaniaHDD]
    Writing library             : x264 core 163 r3059 b684ebe0
    Encoding settings           : cabac=1 / ref=4 / deblock=1:-2:-2 / analyse=0x3:0x133 / me=umh / subme=9 / psy=1 / psy_rd=1.00:0.25 / mixed_ref=1 / me_range=16 / chroma_me=1 / trellis=2 / 8x8dct=1 / cqm=0 / deadzone=6,6 / fast_pskip=1 / chroma_qp_offset=-4 / threads=24 / lookahead_threads=2 / sliced_threads=0 / nr=0 / decimate=0 / interlaced=0 / bluray_compat=0 / constrained_intra=0 / bframes=3 / b_pyramid=2 / b_adapt=2 / b_bias=0 / direct=3 / weightb=1 / open_gop=0 / weightp=2 / keyint=240 / keyint_min=24 / scenecut=40 / intra_refresh=0 / rc_lookahead=60 / rc=2pass / mbtree=1 / bitrate=4500 / ratetol=1.0 / qcomp=0.80 / qpmin=0 / qpmax=69 / qpstep=4 / cplxblur=20.0 / qblur=0.5 / vbv_maxrate=62500 / vbv_bufsize=78125 / nal_hrd=none / filler=0 / ip_ratio=1.10 / aq=1:0.50
    Default                     : Yes
    Forced                      : Yes
    Color range                 : Limited
    Color primaries             : BT.709
    Transfer characteristics    : BT.709
    Matrix coefficients         : BT.709

    Audio #1
    ID                          : 2
    Format                      : AC-3
    Format/Info                 : Audio Coding 3
    Commercial name             : Dolby Digital
    Codec ID                    : A_AC3
    Duration                    : 1 h 35 min
    Bit rate mode               : Constant
    Bit rate                    : 448 kb/s
    Channel(s)                  : 6 channels
    Channel layout              : L R C LFE Ls Rs
    Sampling rate               : 48.0 kHz
    Frame rate                  : 31.250 FPS (1536 SPF)
    Compression mode            : Lossy
    Delay relative to video     : -5 ms
    Stream size                 : 305 MiB (8%)
    Title                       : Español Latino [CinemaniaHDD]
    Language                    : Spanish
    Service kind                : Complete Main
    Default                     : Yes
    Forced                      : Yes

    Audio #2
    ID                          : 3
    Format                      : AC-3
    Format/Info                 : Audio Coding 3
    Commercial name             : Dolby Digital
    Codec ID                    : A_AC3
    Duration                    : 1 h 35 min
    Bit rate mode               : Constant
    Bit rate                    : 448 kb/s
    Channel(s)                  : 6 channels
    Channel layout              : L R C LFE Ls Rs
    Sampling rate               : 48.0 kHz
    Frame rate                  : 31.250 FPS (1536 SPF)
    Compression mode            : Lossy
    Delay relative to video     : -5 ms
    Stream size                 : 305 MiB (8%)
    Title                       : Ingles [CinemaniaHDD]
    Language                    : English
    Service kind                : Complete Main
    Default                     : No
    Forced                      : No

    Text #1
    ID                          : 4
    Format                      : UTF-8
    Codec ID                    : S_TEXT/UTF8
    Codec ID/Info               : UTF-8 Plain Text
    Duration                    : 1 h 21 min
    Bit rate                    : 2 b/s
    Count of elements           : 53
    Stream size                 : 1.63 KiB (0%)
    Title                       : Forzados-SRT [CinemaniaHDD]
    Language                    : Spanish
    Default                     : Yes
    Forced                      : Yes

    Text #2
    ID                          : 5
    Format                      : UTF-8
    Codec ID                    : S_TEXT/UTF8
    Codec ID/Info               : UTF-8 Plain Text
    Duration                    : 1 h 27 min
    Bit rate                    : 44 b/s
    Count of elements           : 826
    Stream size                 : 28.9 KiB (0%)
    Title                       : Español-SRT [CinemaniaHDD]
    Language                    : Spanish
    Default                     : No
    Forced                      : No

    Text #3
    ID                          : 6
    Format                      : UTF-8
    Codec ID                    : S_TEXT/UTF8
    Codec ID/Info               : UTF-8 Plain Text
    Duration                    : 1 h 28 min
    Bit rate                    : 45 b/s
    Count of elements           : 822
    Stream size                 : 29.3 KiB (0%)
    Title                       : Ingles [CinemaniaHDD]
    Language                    : English
    Default                     : No
    Forced                      : No

    Menu
    00:00:00.000                : 00:00:00.000
    00:06:23.383                : 00:06:23.383
    00:09:22.729                : 00:09:22.729
    00:12:26.704                : 00:12:26.704
    00:15:36.936                : 00:15:36.936
    00:16:52.970                : 00:16:52.970
    00:22:14.291                : 00:22:14.291
    00:28:54.566                : 00:28:54.566
    00:34:45.000                : 00:34:45.000
    00:36:52.836                : 00:36:52.836
    00:39:09.222                : 00:39:09.222
    00:42:27.378                : 00:42:27.378
    00:49:52.698                : 00:49:52.698
    00:52:03.746                : 00:52:03.746
    00:53:05.182                : 00:53:05.182
    01:00:34.631                : 01:00:34.631
    01:05:41.271                : 01:05:41.271
    01:09:53.940                : 01:09:53.940
    01:11:45.051                : 01:11:45.051
    01:14:52.029                : 01:14:52.029
    01:17:21.470                : 01:17:21.470
    01:22:22.563                : 01:22:22.563
    01:25:42.721                : 01:25:42.721
    01:27:33.373                : 01:27:33.373

  • Peso: 3.59 GiB

Sinopsis

Descargar Saw V (2008) Unrated Director’s Cut 1080p Latino. Hoffman (Costas Mandylor) es la última persona viva para heredar el legado de Jigsaw (Tobin Bell). Pero cuando su secreto se ve amenazado, Hoffman debe iniciar la caza para eliminar todos los cabos sueltos. Nueva entrega de la saga dirigida por el diseñador de producción de las tres anteriores.

Ficha técnica

Video trailer de la película

Enlaces de descarga

Rip de Bluray

Descargar Saw V (2008) Unrated Director’s Cut 1080p Latino




Aportes de DPeliculasHDmega la pass es:dpeliculashdmega.org Aportes de CinemaniaHD la pass es:cinemaniahdd.com Aportes recientes:cinemaniahdd.net
Guardado en : Crime , HD 1080p , Horror , Thriller
Etiquetado en :

Películas relacionadas

  • El Ministerio de la Guerra (2024) HD 1080p Latino

    El Ministerio de la Guerra (2024) HD 1080p Latino

    2024
    El Ministerio de la Guerra (2024) HD 1080p Latino

    2h 0m 2024

    Descargar El Ministerio de la Guerra (2024) HD 1080p Latino.  El ejército británico recluta a un pequeño...

    Director: Guy Ritchie

    Género: Acción

    Actores: Til Schweiger

  • El bebé de Rosemary (1968) 1080p Latino-CMHDD

    El bebé de Rosemary (1968) 1080p Latino-CMHDD

    1968
    El bebé de Rosemary (1968) 1080p Latino-CMHDD

    2h 18m 1968

    Descargar El bebé de Rosemary (1968) 1080p Latino-CMHDD. Una joven pareja, Rosemary y Guy, se muda a...

    Director: Roman Polanski

    Género: Drama

    Actores: William Castle

  • Milagros Inesperados (1999) 1080p Latino-CMHDD

    Milagros Inesperados (1999) 1080p Latino-CMHDD

    1999
    Milagros Inesperados (1999) 1080p Latino-CMHDD

    3h 9m 1999

    Descargar Milagros Inesperados (1999) 1080p Latino-CMHDD. En el sur de los Estados Unidos, en plena Depresión,...

    Director: Susan Malerstein

    Género: Crimen

    Actores: William Sadler

descargar Saw V (2008) Unrated Director’s Cut 1080p Latino 1080p 1080p gratis, Saw V (2008) Unrated Director’s Cut 1080p Latino 1080p mega 1 link, Saw V (2008) Unrated Director’s Cut 1080p Latino 1080p pelicula completa, descargar Saw V (2008) Unrated Director’s Cut 1080p Latino 1080p gratis en mega.

Saw V (2008) Unrated Director’s Cut 1080p Latino pelicula full hd, Saw V (2008) Unrated Director’s Cut 1080p Latino mega latino, Saw V (2008) Unrated Director’s Cut 1080p Latino 4k latino, Saw V (2008) Unrated Director’s Cut 1080p Latino pelicula completa, Saw V (2008) Unrated Director’s Cut 1080p Latino descargar gratis, descargar Saw V (2008) Unrated Director’s Cut 1080p Latino pelicula latino, Saw V (2008) Unrated Director’s Cut 1080p Latino 1 link mega, Saw V (2008) Unrated Director’s Cut 1080p Latino 1 link google drive, Saw V (2008) Unrated Director’s Cut 1080p Latino hd 1080p latino.
Comentarios 0