×

¿Problemas para descargar con Mozilla, EDGE? Deshabilita la opción "Abrir vinculos en una pestaña nueva" tal como lo muestra ésta imagen.

Saw IV (2007) Unrated Director’s Cut REMUX 1080p Latino-CMHDD

451 vistas

Información de Saw IV (2007) Unrated Director’s Cut REMUX 1080p Latino-CMHDD

Datos de la película

  • Calidad: Full 1080p
  • Audio: Español Latino AC3 5.1 DVD - Ingles DTS 5.1 BLURAY
  • Subtitulos: Español Latino SRT - Ingles SRT
  • Resolución: 1920x1080p
  • Formato: MKV
  • Codec: H.264
  • Encoder: CinefiloCool
  • Mediainfo: Clic para Mostrar Datos Ver
  • Saw IV (2007) UNRATED DC REMUX 1080p Latino-CMHDD.mkv
    Format                      : Matroska
    Format version              : Version 4
    File size                   : 19.0 GiB
    Duration                    : 1 h 35 min
    Overall bit rate mode       : Variable
    Overall bit rate            : 28.4 Mb/s
    Movie name                  : Saw IV (2007) CinemaniaHDD.Net
    Encoded date                : UTC 2021-11-02 06:51:59
    Writing application         : mkvmerge v56.1.0 ('My Friend') 64-bit
    Writing library             : libebml v1.4.2 + libmatroska v1.6.4
    Attachments                 : CINEMANIAHD.png

    Video
    ID                          : 1
    Format                      : VC-1
    Format profile              : Advanced@L3
    Codec ID                    : V_MS/VFW/FOURCC / WVC1
    Codec ID/Hint               : Microsoft
    Duration                    : 1 h 35 min
    Bit rate                    : 24.9 Mb/s
    Width                       : 1 920 pixels
    Height                      : 1 080 pixels
    Display aspect ratio        : 16:9
    Frame rate mode             : Constant
    Frame rate                  : 23.976 (24000/1001) FPS
    Color space                 : YUV
    Chroma subsampling          : 4:2:0
    Bit depth                   : 8 bits
    Scan type                   : Progressive
    Compression mode            : Lossy
    Bits/(Pixel*Frame)          : 0.501
    Stream size                 : 16.7 GiB (88%)
    Title                       : REMUX HD1080p [CinemaniaHDD]
    Default                     : Yes
    Forced                      : Yes

    Audio #1
    ID                          : 2
    Format                      : AC-3
    Format/Info                 : Audio Coding 3
    Commercial name             : Dolby Digital
    Codec ID                    : A_AC3
    Duration                    : 1 h 35 min
    Bit rate mode               : Constant
    Bit rate                    : 448 kb/s
    Channel(s)                  : 6 channels
    Channel layout              : L R C LFE Ls Rs
    Sampling rate               : 48.0 kHz
    Frame rate                  : 31.250 FPS (1536 SPF)
    Compression mode            : Lossy
    Stream size                 : 307 MiB (2%)
    Title                       : Español Latino [CinemaniaHDD]
    Language                    : Spanish
    Service kind                : Complete Main
    Default                     : Yes
    Forced                      : Yes

    Audio #2
    ID                          : 3
    Format                      : DTS XLL
    Format/Info                 : Digital Theater Systems
    Commercial name             : DTS-HD Master Audio
    Codec ID                    : A_DTS
    Duration                    : 1 h 35 min
    Bit rate mode               : Variable
    Bit rate                    : 3 002 kb/s
    Channel(s)                  : 8 channels
    Channel layout              : C L R Ls Rs LFE Tfl Tfr
    Sampling rate               : 48.0 kHz
    Frame rate                  : 93.750 FPS (512 SPF)
    Bit depth                   : 16 bits
    Compression mode            : Lossless
    Stream size                 : 2.01 GiB (11%)
    Title                       : Ingles [CinemaniaHDD]
    Language                    : English
    Default                     : No
    Forced                      : No

    Text #1
    ID                          : 4
    Format                      : UTF-8
    Codec ID                    : S_TEXT/UTF8
    Codec ID/Info               : UTF-8 Plain Text
    Duration                    : 1 h 13 min
    Bit rate                    : 2 b/s
    Count of elements           : 56
    Stream size                 : 1.44 KiB (0%)
    Title                       : Forzados-SRT [CinemaniaHDD]
    Language                    : Spanish
    Default                     : Yes
    Forced                      : Yes

    Text #2
    ID                          : 5
    Format                      : UTF-8
    Codec ID                    : S_TEXT/UTF8
    Codec ID/Info               : UTF-8 Plain Text
    Duration                    : 1 h 27 min
    Bit rate                    : 51 b/s
    Count of elements           : 1004
    Stream size                 : 33.3 KiB (0%)
    Title                       : Español-SRT [CinemaniaHDD]
    Language                    : Spanish
    Default                     : No
    Forced                      : No

    Text #3
    ID                          : 6
    Format                      : UTF-8
    Codec ID                    : S_TEXT/UTF8
    Codec ID/Info               : UTF-8 Plain Text
    Duration                    : 1 h 27 min
    Bit rate                    : 46 b/s
    Count of elements           : 993
    Stream size                 : 29.7 KiB (0%)
    Title                       : Ingles [CinemaniaHDD]
    Language                    : English
    Default                     : No
    Forced                      : No

    Menu
    00:00:00.000                : 00:00:00.000
    00:06:22.007                : 00:06:22.007
    00:09:46.586                : 00:09:46.586
    00:13:38.568                : 00:13:38.568
    00:15:24.006                : 00:15:24.006
    00:18:15.761                : 00:18:15.761
    00:19:16.280                : 00:19:16.280
    00:22:47.199                : 00:22:47.199
    00:26:07.524                : 00:26:07.524
    00:28:43.805                : 00:28:43.805
    00:32:32.159                : 00:32:32.159
    00:34:25.355                : 00:34:25.355
    00:40:00.231                : 00:40:00.231
    00:40:59.332                : 00:40:59.332
    00:43:24.644                : 00:43:24.644
    00:46:51.475                : 00:46:51.475
    00:51:05.062                : 00:51:05.062
    00:52:53.087                : 00:52:53.087
    00:55:22.528                : 00:55:22.528
    01:01:33.565                : 01:01:33.565
    01:06:29.903                : 01:06:29.903
    01:17:51.208                : 01:17:51.208
    01:20:54.141                : 01:20:54.141
    01:25:09.479                : 01:25:09.479

  • Peso: 19.0 GiB

Sinopsis

Descargar Saw IV (2007) Unrated Director’s Cut REMUX 1080p Latino-CMHDD. Jigsaw y su aprendiz Amanda están muertos. Ahora, luego de hacerse público el asesinato de la detective Kerry, dos agentes del FBI, el Agente Strahn y el Agente Pérez, llegan a la aterrorizada comunidad para ayudar al veterano detective Hoffman a examinar minuciosamente los restos grisáceos que quedaron de Jigsaw, y así resolver el rompecabezas. Sin embargo, cuando el Comandante Rigg, perteneciente a la brigada especial SWAT, es secuestrado y empujado dentro del juego, contará con tan solo noventa minutos para triunfar en una serie de trampas dementes y salvar a un viejo amigo o enfrentar las consecuencias mortales…

RESUBIDA, DISPONIBLE SOLO PARA VIP!!

Nota:
– El Audio latino una vez mas es adaptado. proviene de las versiones ya subidas (creditos al editor original).
– Segun la Info encontrada la cuarta parte de la saga salio unicamente con un corte adicional llamado «Unrated director’s Cut» que se diferencia del R-Rated (theatrical) en cambios relativamente pocos, escenas mas extensas y censuras del gore principalmente.
– Las escenas extensas son en escencia flashbacks con dialogos asi que adapté y/o Generé desde cero los Subtitulos Forzados para estos en base a los reviews y comparaciones que encontre.

Ficha técnica

Video trailer de la película

Enlaces de descarga

Rip de Bluray

Descargar Saw IV (2007) Unrated Director’s Cut REMUX 1080p Latino-CMHDD


Aportes de DPeliculasHDmega la pass es:dpeliculashdmega.org Aportes de CinemaniaHD la pass es:cinemaniahdd.com Aportes recientes:cinemaniahdd.net
Guardado en : Crimen , Remux , Suspenso , Terror
Etiquetado en :

Películas relacionadas

descargar Saw IV (2007) Unrated Director’s Cut REMUX 1080p Latino-CMHDD Full 1080p 1080p gratis, Saw IV (2007) Unrated Director’s Cut REMUX 1080p Latino-CMHDD Full 1080p mega 1 link, Saw IV (2007) Unrated Director’s Cut REMUX 1080p Latino-CMHDD Full 1080p pelicula completa, descargar Saw IV (2007) Unrated Director’s Cut REMUX 1080p Latino-CMHDD Full 1080p gratis en mega.

Saw IV (2007) Unrated Director’s Cut REMUX 1080p Latino-CMHDD pelicula full hd, Saw IV (2007) Unrated Director’s Cut REMUX 1080p Latino-CMHDD mega latino, Saw IV (2007) Unrated Director’s Cut REMUX 1080p Latino-CMHDD 4k latino, Saw IV (2007) Unrated Director’s Cut REMUX 1080p Latino-CMHDD pelicula completa, Saw IV (2007) Unrated Director’s Cut REMUX 1080p Latino-CMHDD descargar gratis, descargar Saw IV (2007) Unrated Director’s Cut REMUX 1080p Latino-CMHDD pelicula latino, Saw IV (2007) Unrated Director’s Cut REMUX 1080p Latino-CMHDD 1 link mega, Saw IV (2007) Unrated Director’s Cut REMUX 1080p Latino-CMHDD 1 link google drive, Saw IV (2007) Unrated Director’s Cut REMUX 1080p Latino-CMHDD hd 1080p latino.
Comentarios 0