×

¿Problemas para descargar con Mozilla, EDGE? Deshabilita la opción "Abrir vinculos en una pestaña nueva" tal como lo muestra ésta imagen.

Saw IV (2007) Unrated Director’s Cut 1080p Latino

372 vistas

Información de Saw IV (2007) Unrated Director’s Cut 1080p Latino

Datos de la película

  • Calidad: 1080p
  • Audio: Español Latino AC3 5.1 DVD - Ingles AC3 5.1 BLURAY
  • Subtitulos: Español Latino SRT - Ingles SRT
  • Resolución: 1920x1040p
  • Formato: MKV
  • Codec: H.264
  • Encoder: CinefiloCool
  • Mediainfo: Clic para Mostrar Datos Ver
  • Saw IV (2007) UNRATED DC 1080p Latino-CMHDD.mkv
    Format                      : Matroska
    Format version              : Version 4
    File size                   : 3.61 GiB
    Duration                    : 1 h 35 min
    Overall bit rate            : 5 398 kb/s
    Movie name                  : Saw IV (2007) CinemaniaHDD.Net
    Encoded date                : UTC 2023-04-15 04:25:44
    Writing application         : mkvmerge v56.1.0 ('My Friend') 64-bit
    Writing library             : libebml v1.4.2 + libmatroska v1.6.4
    Attachments                 : CINEMANIAHD.png

    Video
    ID                          : 1
    Format                      : AVC
    Format/Info                 : Advanced Video Codec
    Format profile              : High@L4.2
    Format settings             : CABAC / 4 Ref Frames
    Format settings, CABAC      : Yes
    Format settings, Reference  : 4 frames
    Codec ID                    : V_MPEG4/ISO/AVC
    Duration                    : 1 h 35 min
    Bit rate                    : 4 500 kb/s
    Width                       : 1 920 pixels
    Height                      : 1 040 pixels
    Display aspect ratio        : 1.85:1
    Frame rate mode             : Constant
    Frame rate                  : 23.976 (24000/1001) FPS
    Color space                 : YUV
    Chroma subsampling          : 4:2:0
    Bit depth                   : 8 bits
    Scan type                   : Progressive
    Bits/(Pixel*Frame)          : 0.094
    Stream size                 : 3.01 GiB (83%)
    Title                       : Full HD1080p [CinemaniaHDD]
    Writing library             : x264 core 163 r3059 b684ebe0
    Encoding settings           : cabac=1 / ref=4 / deblock=1:-2:-2 / analyse=0x3:0x133 / me=umh / subme=9 / psy=1 / psy_rd=1.00:0.25 / mixed_ref=1 / me_range=16 / chroma_me=1 / trellis=2 / 8x8dct=1 / cqm=0 / deadzone=6,6 / fast_pskip=1 / chroma_qp_offset=-4 / threads=24 / lookahead_threads=2 / sliced_threads=0 / nr=0 / decimate=0 / interlaced=0 / bluray_compat=0 / constrained_intra=0 / bframes=3 / b_pyramid=2 / b_adapt=2 / b_bias=0 / direct=3 / weightb=1 / open_gop=0 / weightp=2 / keyint=240 / keyint_min=24 / scenecut=40 / intra_refresh=0 / rc_lookahead=60 / rc=2pass / mbtree=1 / bitrate=4500 / ratetol=1.0 / qcomp=0.80 / qpmin=0 / qpmax=69 / qpstep=4 / cplxblur=20.0 / qblur=0.5 / vbv_maxrate=62500 / vbv_bufsize=78125 / nal_hrd=none / filler=0 / ip_ratio=1.10 / aq=1:0.50
    Default                     : Yes
    Forced                      : Yes
    Color range                 : Limited
    Color primaries             : BT.709
    Transfer characteristics    : BT.709
    Matrix coefficients         : BT.709

    Audio #1
    ID                          : 2
    Format                      : AC-3
    Format/Info                 : Audio Coding 3
    Commercial name             : Dolby Digital
    Codec ID                    : A_AC3
    Duration                    : 1 h 35 min
    Bit rate mode               : Constant
    Bit rate                    : 448 kb/s
    Channel(s)                  : 6 channels
    Channel layout              : L R C LFE Ls Rs
    Sampling rate               : 48.0 kHz
    Frame rate                  : 31.250 FPS (1536 SPF)
    Compression mode            : Lossy
    Delay relative to video     : -5 ms
    Stream size                 : 307 MiB (8%)
    Title                       : Español Latino [CinemaniaHDD]
    Language                    : Spanish
    Service kind                : Complete Main
    Default                     : Yes
    Forced                      : Yes

    Audio #2
    ID                          : 3
    Format                      : AC-3
    Format/Info                 : Audio Coding 3
    Commercial name             : Dolby Digital
    Codec ID                    : A_AC3
    Duration                    : 1 h 35 min
    Bit rate mode               : Constant
    Bit rate                    : 448 kb/s
    Channel(s)                  : 6 channels
    Channel layout              : L R C LFE Ls Rs
    Sampling rate               : 48.0 kHz
    Frame rate                  : 31.250 FPS (1536 SPF)
    Compression mode            : Lossy
    Delay relative to video     : -5 ms
    Stream size                 : 307 MiB (8%)
    Title                       : Ingles [CinemaniaHDD]
    Language                    : English
    Service kind                : Complete Main
    Default                     : No
    Forced                      : No

    Text #1
    ID                          : 4
    Format                      : UTF-8
    Codec ID                    : S_TEXT/UTF8
    Codec ID/Info               : UTF-8 Plain Text
    Duration                    : 1 h 13 min
    Bit rate                    : 2 b/s
    Count of elements           : 56
    Stream size                 : 1.44 KiB (0%)
    Title                       : Forzados-SRT [CinemaniaHDD]
    Language                    : Spanish
    Default                     : Yes
    Forced                      : Yes

    Text #2
    ID                          : 5
    Format                      : UTF-8
    Codec ID                    : S_TEXT/UTF8
    Codec ID/Info               : UTF-8 Plain Text
    Duration                    : 1 h 27 min
    Bit rate                    : 51 b/s
    Count of elements           : 1004
    Stream size                 : 33.3 KiB (0%)
    Title                       : Español-SRT [CinemaniaHDD]
    Language                    : Spanish
    Default                     : No
    Forced                      : No

    Text #3
    ID                          : 6
    Format                      : UTF-8
    Codec ID                    : S_TEXT/UTF8
    Codec ID/Info               : UTF-8 Plain Text
    Duration                    : 1 h 27 min
    Bit rate                    : 46 b/s
    Count of elements           : 993
    Stream size                 : 29.7 KiB (0%)
    Title                       : Ingles [CinemaniaHDD]
    Language                    : English
    Default                     : No
    Forced                      : No

    Menu
    00:00:00.000                : 00:00:00.000
    00:06:22.007                : 00:06:22.007
    00:09:46.586                : 00:09:46.586
    00:13:38.568                : 00:13:38.568
    00:15:24.006                : 00:15:24.006
    00:18:15.761                : 00:18:15.761
    00:19:16.280                : 00:19:16.280
    00:22:47.199                : 00:22:47.199
    00:26:07.524                : 00:26:07.524
    00:28:43.805                : 00:28:43.805
    00:32:32.159                : 00:32:32.159
    00:34:25.355                : 00:34:25.355
    00:40:00.231                : 00:40:00.231
    00:40:59.332                : 00:40:59.332
    00:43:24.644                : 00:43:24.644
    00:46:51.475                : 00:46:51.475
    00:51:05.062                : 00:51:05.062
    00:52:53.087                : 00:52:53.087
    00:55:22.528                : 00:55:22.528
    01:01:33.565                : 01:01:33.565
    01:06:29.903                : 01:06:29.903
    01:17:51.208                : 01:17:51.208
    01:20:54.141                : 01:20:54.141
    01:25:09.479                : 01:25:09.479

  • Peso: 3.61 GiB

Sinopsis

Descargar Saw IV (2007) Unrated Director’s Cut 1080p Latino. Jigsaw y su aprendiz Amanda están muertos. Ahora, luego de hacerse público el asesinato de la detective Kerry, dos agentes del FBI, el Agente Strahn y el Agente Pérez, llegan a la aterrorizada comunidad para ayudar al veterano detective Hoffman a examinar minuciosamente los restos grisáceos que quedaron de Jigsaw, y así resolver el rompecabezas. Sin embargo, cuando el Comandante Rigg, perteneciente a la brigada especial SWAT, es secuestrado y empujado dentro del juego, contará con tan solo noventa minutos para triunfar en una serie de trampas dementes y salvar a un viejo amigo o enfrentar las consecuencias mortales…

Ficha técnica

Video trailer de la película

Enlaces de descarga

Rip de Bluray

Descargar Saw IV (2007) Unrated Director’s Cut 1080p Latino




Aportes de DPeliculasHDmega la pass es:dpeliculashdmega.org Aportes de CinemaniaHD la pass es:cinemaniahdd.com Aportes recientes:cinemaniahdd.net
Guardado en : Crimen , HD 1080p , Suspenso , Terror
Etiquetado en :

Películas relacionadas

  • Amor, Mentiras y Sangre (2024) REMUX 1080p Latino

    Amor, Mentiras y Sangre (2024) REMUX 1080p Latino

    2024
    Amor, Mentiras y Sangre (2024) REMUX 1080p Latino

    1h 44m 2024

    Descargar Amor, Mentiras y Sangre (2024) REMUX 1080p Latino. Jackie está decidida a triunfar como culturista...

    Director: William Merritt Thomas

    Género: Crimen

    Actores: Tait Fletcher

  • Amor, Mentiras y Sangre (2024) HD 1080p Latino

    Amor, Mentiras y Sangre (2024) HD 1080p Latino

    2024
    Amor, Mentiras y Sangre (2024) HD 1080p Latino

    1h 44m 2024

    Descargar Amor, Mentiras y Sangre (2024) HD 1080p Latino. Jackie está decidida a triunfar como culturista...

    Director: William Merritt Thomas

    Género: Crimen

    Actores: Tait Fletcher

  • Love Lies Bleeding (2024) AMZN WEB-DL 1080p Latino

    Love Lies Bleeding (2024) AMZN WEB-DL 1080p Latino

    2024
    Love Lies Bleeding (2024) AMZN WEB-DL 1080p Latino

    1h 44m 2024

    Jackie está decidida a triunfar como culturista y se dirige a Las Vegas para participar en una competición....

    Director: William Merritt Thomas

    Género: Crimen

    Actores: Tait Fletcher

descargar Saw IV (2007) Unrated Director’s Cut 1080p Latino 1080p 1080p gratis, Saw IV (2007) Unrated Director’s Cut 1080p Latino 1080p mega 1 link, Saw IV (2007) Unrated Director’s Cut 1080p Latino 1080p pelicula completa, descargar Saw IV (2007) Unrated Director’s Cut 1080p Latino 1080p gratis en mega.

Saw IV (2007) Unrated Director’s Cut 1080p Latino pelicula full hd, Saw IV (2007) Unrated Director’s Cut 1080p Latino mega latino, Saw IV (2007) Unrated Director’s Cut 1080p Latino 4k latino, Saw IV (2007) Unrated Director’s Cut 1080p Latino pelicula completa, Saw IV (2007) Unrated Director’s Cut 1080p Latino descargar gratis, descargar Saw IV (2007) Unrated Director’s Cut 1080p Latino pelicula latino, Saw IV (2007) Unrated Director’s Cut 1080p Latino 1 link mega, Saw IV (2007) Unrated Director’s Cut 1080p Latino 1 link google drive, Saw IV (2007) Unrated Director’s Cut 1080p Latino hd 1080p latino.
Comentarios 0