×

¿Problemas para descargar con Mozilla, EDGE? Deshabilita la opción "Abrir vinculos en una pestaña nueva" tal como lo muestra ésta imagen.

Saw III (2006) Unrated Director’s Cut REMUX 1080p Latino-CMHDD

171 vistas

Información de Saw III (2006) Unrated Director’s Cut REMUX 1080p Latino-CMHDD

Datos de la película

  • Calidad: Full 1080p
  • Audio: Español Latino AC3 2.0 DVD - Ingles DTS 5.1 BLURAY
  • Subtitulos: Español Latino SRT - Ingles SRT
  • Resolución: 1920x1080p
  • Formato: MKV
  • Codec: H.264
  • Encoder: CinefiloCool
  • Mediainfo: Clic para Mostrar Datos Ver
  • Saw III (2006) Director's Cut REMUX 1080p Latino-CMHDD.mkv
    Format                      : Matroska
    Format version              : Version 4
    File size                   : 23.4 GiB
    Duration                    : 2 h 0 min
    Overall bit rate mode       : Variable
    Overall bit rate            : 27.7 Mb/s
    Movie name                  : Saw III (2006) CinemaniaHDD.Net
    Encoded date                : UTC 2021-10-25 09:03:26
    Writing application         : mkvmerge v56.1.0 ('My Friend') 64-bit
    Writing library             : libebml v1.4.2 + libmatroska v1.6.4
    Attachments                 : CINEMANIAHD.png

    Video
    ID                          : 1
    Format                      : VC-1
    Format profile              : Advanced@L3
    Codec ID                    : V_MS/VFW/FOURCC / WVC1
    Codec ID/Hint               : Microsoft
    Duration                    : 2 h 0 min
    Bit rate                    : 24.9 Mb/s
    Width                       : 1 920 pixels
    Height                      : 1 080 pixels
    Display aspect ratio        : 16:9
    Frame rate mode             : Constant
    Frame rate                  : 23.976 (24000/1001) FPS
    Color space                 : YUV
    Chroma subsampling          : 4:2:0
    Bit depth                   : 8 bits
    Scan type                   : Progressive
    Compression mode            : Lossy
    Bits/(Pixel*Frame)          : 0.501
    Stream size                 : 21.0 GiB (90%)
    Title                       : REMUX HD1080p [CinemaniaHDD]
    Default                     : Yes
    Forced                      : Yes

    Audio #1
    ID                          : 2
    Format                      : AC-3
    Format/Info                 : Audio Coding 3
    Commercial name             : Dolby Digital
    Codec ID                    : A_AC3
    Duration                    : 2 h 0 min
    Bit rate mode               : Constant
    Bit rate                    : 192 kb/s
    Channel(s)                  : 2 channels
    Channel layout              : L R
    Sampling rate               : 48.0 kHz
    Frame rate                  : 31.250 FPS (1536 SPF)
    Compression mode            : Lossy
    Stream size                 : 166 MiB (1%)
    Title                       : Español Latino [CinemaniaHDD]
    Language                    : Spanish
    Service kind                : Complete Main
    Default                     : Yes
    Forced                      : Yes

    Audio #2
    ID                          : 3
    Format                      : DTS ES XXCH XLL
    Format/Info                 : Digital Theater Systems
    Commercial name             : DTS-HD Master Audio
    Codec ID                    : A_DTS
    Duration                    : 2 h 0 min
    Bit rate mode               : Variable
    Bit rate                    : 2 639 kb/s
    Channel(s)                  : 7 channels
    Channel layout              : C L R Ls Rs LFE Cb
    Sampling rate               : 48.0 kHz
    Frame rate                  : 93.750 FPS (512 SPF)
    Bit depth                   : 16 bits
    Compression mode            : Lossless
    Stream size                 : 2.23 GiB (10%)
    Title                       : Ingles [CinemaniaHDD]
    Language                    : English
    Default                     : No
    Forced                      : No

    Text #1
    ID                          : 4
    Format                      : UTF-8
    Codec ID                    : S_TEXT/UTF8
    Codec ID/Info               : UTF-8 Plain Text
    Duration                    : 1 h 55 min
    Bit rate                    : 2 b/s
    Count of elements           : 67
    Stream size                 : 1.81 KiB (0%)
    Title                       : Forzados-SRT [CinemaniaHDD]
    Language                    : Spanish
    Default                     : Yes
    Forced                      : Yes

    Text #2
    ID                          : 5
    Format                      : UTF-8
    Codec ID                    : S_TEXT/UTF8
    Codec ID/Info               : UTF-8 Plain Text
    Duration                    : 2 h 0 min
    Bit rate                    : 32 b/s
    Count of elements           : 1011
    Stream size                 : 28.3 KiB (0%)
    Title                       : Español-SRT [CinemaniaHDD]
    Language                    : Spanish
    Default                     : No
    Forced                      : No

    Text #3
    ID                          : 6
    Format                      : UTF-8
    Codec ID                    : S_TEXT/UTF8
    Codec ID/Info               : UTF-8 Plain Text
    Duration                    : 1 h 55 min
    Bit rate                    : 32 b/s
    Count of elements           : 1033
    Stream size                 : 27.3 KiB (0%)
    Title                       : Ingles [CinemaniaHDD]
    Language                    : English
    Default                     : No
    Forced                      : No

    Menu
    00:00:00.000                : 00:00:00.000
    00:06:35.770                : 00:06:35.770
    00:11:40.199                : 00:11:40.199
    00:17:24.919                : 00:17:24.919
    00:28:45.682                : 00:28:45.682
    00:35:58.073                : 00:35:58.073
    00:41:03.461                : 00:41:03.461
    00:48:48.926                : 00:48:48.926
    00:54:45.699                : 00:54:45.699
    01:03:08.118                : 01:03:08.118
    01:16:38.385                : 01:16:38.385
    01:22:45.502                : 01:22:45.502
    01:30:46.358                : 01:30:46.358
    01:36:29.325                : 01:36:29.325
    01:43:22.488                : 01:43:22.488
    01:56:22.601                : 01:56:22.601

  • Peso: 23.4 GiB

Sinopsis

Descargar Saw III (2006) Unrated Director’s Cut REMUX 1080p Latino-CMHDD. Nuevas y macabras aventuras del siniestro Jigsaw, el hombre que mueve los hilos de los espantosos juegos que han aterrorizado a la comunidad y desconcertado a la policía. Jigsaw, una vez más, ha conseguido escapar, esta vez con la ayuda de su nueva aprendiz, Amanda (Shawnee Smith). Mientras la policía local intenta localizarle, el Doctor Lynn Denlon (Bahar Soomekh) y Jeff (Angus Macfayden) no saben que están a punto de convertirse en los siguientes peones de este horrible juego.

DISPONIBLE SOLO PARA VIP!!

Nota:
– El Audio latino una vez mas es adaptado. proviene de las versiones ya subidas (creditos al editor original).
– A partir de esta tercer pelicula y hasta la sexta, las versiones unrated no solo tienen censuras, si no tomas extendidas o alternativas con mas dialogo o escenas importantes cortadas por razones de ritmo.
– Segun la Info que encontré, esta tercera parte tiene tiene mas de un corte, siendo el mas relevante a mi parecer el nombrado «Unrated director’s Cut». Adapté y/o Generé desde cero los Subtitulos Forzados para los dialogos en base a los reviews y comparaciones que encontre.

Ficha técnica

Video trailer de la película

Enlaces de descarga

Rip de Bluray

Descargar Saw III (2006) Unrated Director’s Cut REMUX 1080p Latino-CMHDD


Aportes de DPeliculasHDmega la pass es:dpeliculashdmega.org Aportes de CinemaniaHD la pass es:cinemaniahdd.com
Guardado en : Crimen , Remux , Suspenso , Terror

Películas relacionadas

descargar Saw III (2006) Unrated Director’s Cut REMUX 1080p Latino-CMHDD Full 1080p 1080p gratis, Saw III (2006) Unrated Director’s Cut REMUX 1080p Latino-CMHDD Full 1080p mega 1 link, Saw III (2006) Unrated Director’s Cut REMUX 1080p Latino-CMHDD Full 1080p pelicula completa, descargar Saw III (2006) Unrated Director’s Cut REMUX 1080p Latino-CMHDD Full 1080p gratis en mega.

Saw III (2006) Unrated Director’s Cut REMUX 1080p Latino-CMHDD pelicula full hd, Saw III (2006) Unrated Director’s Cut REMUX 1080p Latino-CMHDD mega latino, Saw III (2006) Unrated Director’s Cut REMUX 1080p Latino-CMHDD 4k latino, Saw III (2006) Unrated Director’s Cut REMUX 1080p Latino-CMHDD pelicula completa, Saw III (2006) Unrated Director’s Cut REMUX 1080p Latino-CMHDD descargar gratis, descargar Saw III (2006) Unrated Director’s Cut REMUX 1080p Latino-CMHDD pelicula latino, Saw III (2006) Unrated Director’s Cut REMUX 1080p Latino-CMHDD 1 link mega, Saw III (2006) Unrated Director’s Cut REMUX 1080p Latino-CMHDD 1 link google drive, Saw III (2006) Unrated Director’s Cut REMUX 1080p Latino-CMHDD hd 1080p latino.
Comentarios 0