×

¿Problemas para descargar con Mozilla, EDGE? Deshabilita la opción "Abrir vinculos en una pestaña nueva" tal como lo muestra ésta imagen.

Saw III (2006) Unrated Director’s Cut 1080p Latino

262 vistas

Información de Saw III (2006) Unrated Director’s Cut 1080p Latino

Datos de la película

  • Calidad: 1080p
  • Audio: Español Latino AC3 2.0 DVD - Ingles AC3 5.1 BLURAY
  • Subtitulos: Español Latino SRT - Ingles SRT
  • Resolución: 1920x1038p
  • Formato: MKV
  • Codec: H.264
  • Encoder: CinefiloCool
  • Mediainfo: Clic para Mostrar Datos Ver
  • Saw III (2006) Director's Cut 1080p Latino-CMHDD.mkv
    Format                      : Matroska
    Format version              : Version 4
    File size                   : 4.34 GiB
    Duration                    : 2 h 0 min
    Overall bit rate            : 5 140 kb/s
    Movie name                  : Saw III (2006) CinemaniaHDD.Net
    Encoded date                : UTC 2023-04-14 21:34:41
    Writing application         : mkvmerge v56.1.0 ('My Friend') 64-bit
    Writing library             : libebml v1.4.2 + libmatroska v1.6.4
    Attachments                 : CINEMANIAHD.png

    Video
    ID                          : 1
    Format                      : AVC
    Format/Info                 : Advanced Video Codec
    Format profile              : High@L4.2
    Format settings             : CABAC / 4 Ref Frames
    Format settings, CABAC      : Yes
    Format settings, Reference  : 4 frames
    Codec ID                    : V_MPEG4/ISO/AVC
    Duration                    : 2 h 0 min
    Bit rate                    : 4 500 kb/s
    Width                       : 1 920 pixels
    Height                      : 1 038 pixels
    Display aspect ratio        : 1.85:1
    Frame rate mode             : Constant
    Frame rate                  : 23.976 (24000/1001) FPS
    Color space                 : YUV
    Chroma subsampling          : 4:2:0
    Bit depth                   : 8 bits
    Scan type                   : Progressive
    Bits/(Pixel*Frame)          : 0.094
    Stream size                 : 3.80 GiB (88%)
    Title                       : HD1080p [CinemaniaHDD]
    Writing library             : x264 core 163 r3059 b684ebe0
    Encoding settings           : cabac=1 / ref=4 / deblock=1:-2:-2 / analyse=0x3:0x133 / me=umh / subme=9 / psy=1 / psy_rd=1.00:0.25 / mixed_ref=1 / me_range=16 / chroma_me=1 / trellis=2 / 8x8dct=1 / cqm=0 / deadzone=6,6 / fast_pskip=1 / chroma_qp_offset=-4 / threads=24 / lookahead_threads=2 / sliced_threads=0 / nr=0 / decimate=0 / interlaced=0 / bluray_compat=0 / constrained_intra=0 / bframes=3 / b_pyramid=2 / b_adapt=2 / b_bias=0 / direct=3 / weightb=1 / open_gop=0 / weightp=2 / keyint=240 / keyint_min=24 / scenecut=40 / intra_refresh=0 / rc_lookahead=60 / rc=2pass / mbtree=1 / bitrate=4500 / ratetol=1.0 / qcomp=0.80 / qpmin=0 / qpmax=69 / qpstep=4 / cplxblur=20.0 / qblur=0.5 / vbv_maxrate=62500 / vbv_bufsize=78125 / nal_hrd=none / filler=0 / ip_ratio=1.10 / aq=1:0.50
    Default                     : Yes
    Forced                      : Yes
    Color range                 : Limited
    Color primaries             : BT.709
    Transfer characteristics    : BT.709
    Matrix coefficients         : BT.709

    Audio #1
    ID                          : 2
    Format                      : AC-3
    Format/Info                 : Audio Coding 3
    Commercial name             : Dolby Digital
    Codec ID                    : A_AC3
    Duration                    : 2 h 0 min
    Bit rate mode               : Constant
    Bit rate                    : 192 kb/s
    Channel(s)                  : 2 channels
    Channel layout              : L R
    Sampling rate               : 48.0 kHz
    Frame rate                  : 31.250 FPS (1536 SPF)
    Compression mode            : Lossy
    Delay relative to video     : -5 ms
    Stream size                 : 166 MiB (4%)
    Title                       : Español Latino [CinemaniaHDD]
    Language                    : Spanish
    Service kind                : Complete Main
    Default                     : Yes
    Forced                      : Yes

    Audio #2
    ID                          : 3
    Format                      : AC-3
    Format/Info                 : Audio Coding 3
    Commercial name             : Dolby Digital
    Codec ID                    : A_AC3
    Duration                    : 2 h 0 min
    Bit rate mode               : Constant
    Bit rate                    : 448 kb/s
    Channel(s)                  : 6 channels
    Channel layout              : L R C LFE Ls Rs
    Sampling rate               : 48.0 kHz
    Frame rate                  : 31.250 FPS (1536 SPF)
    Compression mode            : Lossy
    Delay relative to video     : -5 ms
    Stream size                 : 387 MiB (9%)
    Title                       : Ingles [CinemaniaHDD]
    Language                    : English
    Service kind                : Complete Main
    Default                     : No
    Forced                      : No

    Text #1
    ID                          : 4
    Format                      : UTF-8
    Codec ID                    : S_TEXT/UTF8
    Codec ID/Info               : UTF-8 Plain Text
    Duration                    : 1 h 55 min
    Bit rate                    : 2 b/s
    Count of elements           : 67
    Stream size                 : 1.81 KiB (0%)
    Title                       : Forzados-SRT [CinemaniaHDD]
    Language                    : Spanish
    Default                     : Yes
    Forced                      : Yes

    Text #2
    ID                          : 5
    Format                      : UTF-8
    Codec ID                    : S_TEXT/UTF8
    Codec ID/Info               : UTF-8 Plain Text
    Duration                    : 2 h 0 min
    Bit rate                    : 32 b/s
    Count of elements           : 1011
    Stream size                 : 28.3 KiB (0%)
    Title                       : Español-SRT [CinemaniaHDD]
    Language                    : Spanish
    Default                     : No
    Forced                      : No

    Text #3
    ID                          : 6
    Format                      : UTF-8
    Codec ID                    : S_TEXT/UTF8
    Codec ID/Info               : UTF-8 Plain Text
    Duration                    : 1 h 55 min
    Bit rate                    : 32 b/s
    Count of elements           : 1033
    Stream size                 : 27.3 KiB (0%)
    Title                       : Ingles [CinemaniaHDD]
    Language                    : English
    Default                     : No
    Forced                      : No

    Menu
    00:00:00.000                : 00:00:00.000
    00:06:35.770                : 00:06:35.770
    00:11:40.199                : 00:11:40.199
    00:17:24.919                : 00:17:24.919
    00:28:45.682                : 00:28:45.682
    00:35:58.073                : 00:35:58.073
    00:41:03.461                : 00:41:03.461
    00:48:48.926                : 00:48:48.926
    00:54:45.699                : 00:54:45.699
    01:03:08.118                : 01:03:08.118
    01:16:38.385                : 01:16:38.385
    01:22:45.502                : 01:22:45.502
    01:30:46.358                : 01:30:46.358
    01:36:29.325                : 01:36:29.325
    01:43:22.488                : 01:43:22.488
    01:56:22.601                : 01:56:22.601

  • Peso: 4.34 GiB

Sinopsis

Descargar Saw III (2006) Unrated Director’s Cut 1080p Latino. Nuevas y macabras aventuras del siniestro Jigsaw, el hombre que mueve los hilos de los espantosos juegos que han aterrorizado a la comunidad y desconcertado a la policía. Jigsaw, una vez más, ha conseguido escapar, esta vez con la ayuda de su nueva aprendiz, Amanda (Shawnee Smith). Mientras la policía local intenta localizarle, el Doctor Lynn Denlon (Bahar Soomekh) y Jeff (Angus Macfayden) no saben que están a punto de convertirse en los siguientes peones de este horrible juego.

Ficha técnica

Video trailer de la película

Enlaces de descarga

Rip de Bluray

Descargar Saw III (2006) Unrated Director’s Cut 1080p Latino




Aportes de DPeliculasHDmega la pass es:dpeliculashdmega.org Aportes de CinemaniaHD la pass es:cinemaniahdd.com Aportes recientes:cinemaniahdd.net
Guardado en : Crimen , HD 1080p , Suspenso , Terror
Etiquetado en :

Películas relacionadas

descargar Saw III (2006) Unrated Director’s Cut 1080p Latino 1080p 1080p gratis, Saw III (2006) Unrated Director’s Cut 1080p Latino 1080p mega 1 link, Saw III (2006) Unrated Director’s Cut 1080p Latino 1080p pelicula completa, descargar Saw III (2006) Unrated Director’s Cut 1080p Latino 1080p gratis en mega.

Saw III (2006) Unrated Director’s Cut 1080p Latino pelicula full hd, Saw III (2006) Unrated Director’s Cut 1080p Latino mega latino, Saw III (2006) Unrated Director’s Cut 1080p Latino 4k latino, Saw III (2006) Unrated Director’s Cut 1080p Latino pelicula completa, Saw III (2006) Unrated Director’s Cut 1080p Latino descargar gratis, descargar Saw III (2006) Unrated Director’s Cut 1080p Latino pelicula latino, Saw III (2006) Unrated Director’s Cut 1080p Latino 1 link mega, Saw III (2006) Unrated Director’s Cut 1080p Latino 1 link google drive, Saw III (2006) Unrated Director’s Cut 1080p Latino hd 1080p latino.
Comentarios 0