×

¿Problemas para descargar con Mozilla, EDGE? Deshabilita la opción "Abrir vinculos en una pestaña nueva" tal como lo muestra ésta imagen.

Saw II (2005) UNRATED REMUX 1080p Latino-CMHDD

204 vistas

Información de Saw II (2005) UNRATED REMUX 1080p Latino-CMHDD

Datos de la película

  • Calidad: Full 1080p
  • Audio: Español Latino AC3 2.0 DVD - Ingles DTS 5.1 BLURAY
  • Subtitulos: Español Latino SRT - Ingles SRT
  • Resolución: 1920x1080p
  • Formato: MKV
  • Codec: H.264
  • Encoder: CinefiloCool
  • Mediainfo: Clic para Mostrar Datos Ver
  • Saw II (2005) UNRATED REMUX 1080p Latino-CMHDD.mkv
    Format                      : Matroska
    Format version              : Version 4
    File size                   : 18.3 GiB
    Duration                    : 1 h 34 min
    Overall bit rate mode       : Variable
    Overall bit rate            : 27.6 Mb/s
    Movie name                  : Saw II (2005) CinemaniaHDD.Net
    Encoded date                : UTC 2021-10-25 03:28:54
    Writing application         : mkvmerge v56.1.0 ('My Friend') 64-bit
    Writing library             : libebml v1.4.2 + libmatroska v1.6.4
    Attachments                 : CINEMANIAHD.png

    Video
    ID                          : 1
    Format                      : VC-1
    Format profile              : Advanced@L3
    Codec ID                    : V_MS/VFW/FOURCC / WVC1
    Codec ID/Hint               : Microsoft
    Duration                    : 1 h 34 min
    Bit rate                    : 24.8 Mb/s
    Width                       : 1 920 pixels
    Height                      : 1 080 pixels
    Display aspect ratio        : 16:9
    Frame rate mode             : Constant
    Frame rate                  : 23.976 (24000/1001) FPS
    Color space                 : YUV
    Chroma subsampling          : 4:2:0
    Bit depth                   : 8 bits
    Scan type                   : Progressive
    Compression mode            : Lossy
    Bits/(Pixel*Frame)          : 0.500
    Stream size                 : 16.4 GiB (90%)
    Title                       : REMUX HD1080p [CinemaniaHDD]
    Default                     : Yes
    Forced                      : Yes

    Audio #1
    ID                          : 2
    Format                      : AC-3
    Format/Info                 : Audio Coding 3
    Commercial name             : Dolby Digital
    Codec ID                    : A_AC3
    Duration                    : 1 h 34 min
    Bit rate mode               : Constant
    Bit rate                    : 192 kb/s
    Channel(s)                  : 2 channels
    Channel layout              : L R
    Sampling rate               : 48.0 kHz
    Frame rate                  : 31.250 FPS (1536 SPF)
    Compression mode            : Lossy
    Stream size                 : 130 MiB (1%)
    Title                       : Español Latino [CinemaniaHDD]
    Language                    : Spanish
    Service kind                : Complete Main
    Default                     : Yes
    Forced                      : Yes

    Audio #2
    ID                          : 3
    Format                      : DTS ES XXCH XLL
    Format/Info                 : Digital Theater Systems
    Commercial name             : DTS-HD Master Audio
    Codec ID                    : A_DTS
    Duration                    : 1 h 34 min
    Bit rate mode               : Variable
    Bit rate                    : 2 545 kb/s
    Channel(s)                  : 7 channels
    Channel layout              : C L R Ls Rs LFE Cb
    Sampling rate               : 48.0 kHz
    Frame rate                  : 93.750 FPS (512 SPF)
    Bit depth                   : 16 bits
    Compression mode            : Lossless
    Stream size                 : 1.68 GiB (9%)
    Title                       : Ingles [CinemaniaHDD]
    Language                    : English
    Default                     : No
    Forced                      : No

    Text #1
    ID                          : 4
    Format                      : UTF-8
    Codec ID                    : S_TEXT/UTF8
    Codec ID/Info               : UTF-8 Plain Text
    Duration                    : 1 h 9 min
    Bit rate                    : 0 b/s
    Count of elements           : 6
    Stream size                 : 127 Bytes (0%)
    Title                       : Forzados-SRT [CinemaniaHDD]
    Language                    : Spanish
    Default                     : Yes
    Forced                      : Yes

    Text #2
    ID                          : 5
    Format                      : UTF-8
    Codec ID                    : S_TEXT/UTF8
    Codec ID/Info               : UTF-8 Plain Text
    Duration                    : 1 h 26 min
    Bit rate                    : 53 b/s
    Count of elements           : 1041
    Stream size                 : 34.1 KiB (0%)
    Title                       : Español-SRT [CinemaniaHDD]
    Language                    : Spanish
    Default                     : No
    Forced                      : No

    Text #3
    ID                          : 6
    Format                      : UTF-8
    Codec ID                    : S_TEXT/UTF8
    Codec ID/Info               : UTF-8 Plain Text
    Duration                    : 1 h 27 min
    Bit rate                    : 55 b/s
    Count of elements           : 1038
    Stream size                 : 35.7 KiB (0%)
    Title                       : Ingles [CinemaniaHDD]
    Language                    : English
    Default                     : No
    Forced                      : No

    Menu
    00:00:00.000                : 00:00:00.000
    00:05:01.676                : 00:05:01.676
    00:09:36.993                : 00:09:36.993
    00:11:26.227                : 00:11:26.227
    00:15:08.199                : 00:15:08.199
    00:17:41.269                : 00:17:41.269
    00:21:18.652                : 00:21:18.652
    00:25:11.385                : 00:25:11.385
    00:30:43.467                : 00:30:43.467
    00:35:06.479                : 00:35:06.479
    00:43:12.423                : 00:43:12.423
    00:47:48.074                : 00:47:48.074
    00:52:24.433                : 00:52:24.433
    00:57:36.453                : 00:57:36.453
    01:01:04.786                : 01:01:04.786
    01:05:06.986                : 01:05:06.986
    01:07:03.394                : 01:07:03.394
    01:10:12.041                : 01:10:12.041
    01:12:11.536                : 01:12:11.536
    01:14:42.478                : 01:14:42.478
    01:16:40.012                : 01:16:40.012
    01:19:00.569                : 01:19:00.569
    01:23:14.198                : 01:23:14.198
    01:29:01.878                : 01:29:01.878

  • Peso: 18.3 GiB

Sinopsis

Descargar Saw II (2005) UNRATED REMUX 1080p Latino-CMHDD. «Decide rápido… o muere despacio». Cuando aparece una nueva víctima de asesinato con los signos característicos de Jigsaw, el Agente Eric Matthews (Donnie Wahlberg) se embarca en una investigación exhaustiva que le permite detener al asesino sin demasiado esfuerzo. Sin embargo, para Jigsaw ser detenido no es sino otra parte de su retorcido plan. Hay otras ocho víctimas jugándose la vida y ahora le toca a Matthews unirse al juego…

DISPONIBLE SOLO PARA VIP!!

Nota:
– El Audio latino tambien es del dvd, nuevamente adaptado (creditos al editor original) tambien de las versiones ya subidas.
– Esta vez La version unrated parece tener algunas tomas alternativas ademas  de censuras graficas. investigué un poco y segun las reviews y comparaciones entre la R-Rated y unrated no hay dialogos significativos, nada mas que en un par de ocasiones y la mayoria son expresiones verbales, por lo que tampoco agrego forzados para esas partes.

Ficha técnica

Video trailer de la película

Enlaces de descarga

Rip de Bluray

Descargar Saw II (2005) UNRATED REMUX 1080p Latino-CMHDD


Aportes de DPeliculasHDmega la pass es:dpeliculashdmega.org Aportes de CinemaniaHD la pass es:cinemaniahdd.com
Guardado en : Remux , Terror

Películas relacionadas

  • Mi amigo el dragón (2016) REMUX 1080p Latino

    Mi amigo el dragón (2016) REMUX 1080p Latino

    2016
    Mi amigo el dragón (2016) REMUX 1080p Latino

    1h 43m 2016

    Descargar Mi amigo el dragón (2016) REMUX 1080p Latino. Durante años el Sr. Meacham, un viejo tallador...

    Director: Joe Nolan

    Género: Aventura

    Actores: William J. Rawbone

  • El discurso del Rey (2010) REMUX 1080p Latino

    El discurso del Rey (2010) REMUX 1080p Latino

    2010
    El discurso del Rey (2010) REMUX 1080p Latino

    1h 58m 2010

    Descargar El discurso del Rey (2010) REMUX 1080p Latino. El duque de York se convirtió en rey de Gran...

    Director: Tom Hooper

    Género: Drama

    Actores: Tony Earnshaw

  • La Ladrona De Libros (2013) REMUX 1080p Latino

    La Ladrona De Libros (2013) REMUX 1080p Latino

    2013
    La Ladrona De Libros (2013) REMUX 1080p Latino

    2h 11m 2013

    Descargar La Ladrona De Libros (2013) REMUX 1080p Latino. La novela de 550 páginas de la Segunda Guerra...

    Director: Elizabeth West

    Género: Drama

    Actores: Stephanie Stremler

descargar Saw II (2005) UNRATED REMUX 1080p Latino-CMHDD Full 1080p 1080p gratis, Saw II (2005) UNRATED REMUX 1080p Latino-CMHDD Full 1080p mega 1 link, Saw II (2005) UNRATED REMUX 1080p Latino-CMHDD Full 1080p pelicula completa, descargar Saw II (2005) UNRATED REMUX 1080p Latino-CMHDD Full 1080p gratis en mega.

Saw II (2005) UNRATED REMUX 1080p Latino-CMHDD pelicula full hd, Saw II (2005) UNRATED REMUX 1080p Latino-CMHDD mega latino, Saw II (2005) UNRATED REMUX 1080p Latino-CMHDD 4k latino, Saw II (2005) UNRATED REMUX 1080p Latino-CMHDD pelicula completa, Saw II (2005) UNRATED REMUX 1080p Latino-CMHDD descargar gratis, descargar Saw II (2005) UNRATED REMUX 1080p Latino-CMHDD pelicula latino, Saw II (2005) UNRATED REMUX 1080p Latino-CMHDD 1 link mega, Saw II (2005) UNRATED REMUX 1080p Latino-CMHDD 1 link google drive, Saw II (2005) UNRATED REMUX 1080p Latino-CMHDD hd 1080p latino.
Comentarios 0