×

¿Problemas para descargar con Mozilla, EDGE? Deshabilita la opción "Abrir vinculos en una pestaña nueva" tal como lo muestra ésta imagen.

Saw II (2005) UNRATED 1080p Latino

320 vistas

Información de Saw II (2005) UNRATED 1080p Latino

Datos de la película

  • Calidad: 1080p
  • Audio: Español Latino AC3 2.0 DVD - Ingles AC3 5.1 BLURAY
  • Subtitulos: Español Latino SRT - Ingles SRT
  • Resolución: 1920x1040p
  • Formato: MKV
  • Codec: H.264
  • Encoder: CinefiloCool
  • Mediainfo: Clic para Mostrar Datos Ver
  • Saw II (2005) UNRATED 1080p Latino-CMHDD.mkv
    Format                      : Matroska
    Format version              : Version 4
    File size                   : 3.40 GiB
    Duration                    : 1 h 34 min
    Overall bit rate            : 5 139 kb/s
    Movie name                  : Saw II (2005) CinemaniaHDD.Net
    Encoded date                : UTC 2023-04-14 16:42:37
    Writing application         : mkvmerge v56.1.0 ('My Friend') 64-bit
    Writing library             : libebml v1.4.2 + libmatroska v1.6.4
    Attachments                 : CINEMANIAHD.png

    Video
    ID                          : 1
    Format                      : AVC
    Format/Info                 : Advanced Video Codec
    Format profile              : High@L4.2
    Format settings             : CABAC / 4 Ref Frames
    Format settings, CABAC      : Yes
    Format settings, Reference  : 4 frames
    Codec ID                    : V_MPEG4/ISO/AVC
    Duration                    : 1 h 34 min
    Bit rate                    : 4 500 kb/s
    Width                       : 1 920 pixels
    Height                      : 1 040 pixels
    Display aspect ratio        : 1.85:1
    Frame rate mode             : Constant
    Frame rate                  : 23.976 (24000/1001) FPS
    Color space                 : YUV
    Chroma subsampling          : 4:2:0
    Bit depth                   : 8 bits
    Scan type                   : Progressive
    Bits/(Pixel*Frame)          : 0.094
    Stream size                 : 2.97 GiB (88%)
    Title                       : HD1080p [CinemaniaHDD]
    Writing library             : x264 core 163 r3059 b684ebe0
    Encoding settings           : cabac=1 / ref=4 / deblock=1:-2:-2 / analyse=0x3:0x133 / me=umh / subme=9 / psy=1 / psy_rd=1.00:0.25 / mixed_ref=1 / me_range=16 / chroma_me=1 / trellis=2 / 8x8dct=1 / cqm=0 / deadzone=6,6 / fast_pskip=1 / chroma_qp_offset=-4 / threads=24 / lookahead_threads=2 / sliced_threads=0 / nr=0 / decimate=0 / interlaced=0 / bluray_compat=0 / constrained_intra=0 / bframes=3 / b_pyramid=2 / b_adapt=2 / b_bias=0 / direct=3 / weightb=1 / open_gop=0 / weightp=2 / keyint=240 / keyint_min=24 / scenecut=40 / intra_refresh=0 / rc_lookahead=60 / rc=2pass / mbtree=1 / bitrate=4500 / ratetol=1.0 / qcomp=0.80 / qpmin=0 / qpmax=69 / qpstep=4 / cplxblur=20.0 / qblur=0.5 / vbv_maxrate=62500 / vbv_bufsize=78125 / nal_hrd=none / filler=0 / ip_ratio=1.10 / aq=1:0.50
    Default                     : Yes
    Forced                      : Yes
    Color range                 : Limited
    Color primaries             : BT.709
    Transfer characteristics    : BT.709
    Matrix coefficients         : BT.709

    Audio #1
    ID                          : 2
    Format                      : AC-3
    Format/Info                 : Audio Coding 3
    Commercial name             : Dolby Digital
    Codec ID                    : A_AC3
    Duration                    : 1 h 34 min
    Bit rate mode               : Constant
    Bit rate                    : 192 kb/s
    Channel(s)                  : 2 channels
    Channel layout              : L R
    Sampling rate               : 48.0 kHz
    Frame rate                  : 31.250 FPS (1536 SPF)
    Compression mode            : Lossy
    Delay relative to video     : -5 ms
    Stream size                 : 130 MiB (4%)
    Title                       : Español Latino [CinemaniaHDD]
    Language                    : Spanish
    Service kind                : Complete Main
    Default                     : Yes
    Forced                      : Yes

    Audio #2
    ID                          : 3
    Format                      : AC-3
    Format/Info                 : Audio Coding 3
    Commercial name             : Dolby Digital
    Codec ID                    : A_AC3
    Duration                    : 1 h 34 min
    Bit rate mode               : Constant
    Bit rate                    : 448 kb/s
    Channel(s)                  : 6 channels
    Channel layout              : L R C LFE Ls Rs
    Sampling rate               : 48.0 kHz
    Frame rate                  : 31.250 FPS (1536 SPF)
    Compression mode            : Lossy
    Delay relative to video     : -5 ms
    Stream size                 : 303 MiB (9%)
    Title                       : Ingles [CinemaniaHDD]
    Language                    : English
    Service kind                : Complete Main
    Default                     : No
    Forced                      : No

    Text #1
    ID                          : 4
    Format                      : UTF-8
    Codec ID                    : S_TEXT/UTF8
    Codec ID/Info               : UTF-8 Plain Text
    Duration                    : 1 h 9 min
    Bit rate                    : 0 b/s
    Count of elements           : 6
    Stream size                 : 127 Bytes (0%)
    Title                       : Forzados-SRT [CinemaniaHDD]
    Language                    : Spanish
    Default                     : Yes
    Forced                      : Yes

    Text #2
    ID                          : 5
    Format                      : UTF-8
    Codec ID                    : S_TEXT/UTF8
    Codec ID/Info               : UTF-8 Plain Text
    Duration                    : 1 h 26 min
    Bit rate                    : 53 b/s
    Count of elements           : 1041
    Stream size                 : 34.1 KiB (0%)
    Title                       : Español-SRT [CinemaniaHDD]
    Language                    : Spanish
    Default                     : No
    Forced                      : No

    Text #3
    ID                          : 6
    Format                      : UTF-8
    Codec ID                    : S_TEXT/UTF8
    Codec ID/Info               : UTF-8 Plain Text
    Duration                    : 1 h 27 min
    Bit rate                    : 55 b/s
    Count of elements           : 1038
    Stream size                 : 35.7 KiB (0%)
    Title                       : Ingles [CinemaniaHDD]
    Language                    : English
    Default                     : No
    Forced                      : No

    Menu
    00:00:00.000                : 00:00:00.000
    00:05:01.676                : 00:05:01.676
    00:09:36.993                : 00:09:36.993
    00:11:26.227                : 00:11:26.227
    00:15:08.199                : 00:15:08.199
    00:17:41.269                : 00:17:41.269
    00:21:18.652                : 00:21:18.652
    00:25:11.385                : 00:25:11.385
    00:30:43.467                : 00:30:43.467
    00:35:06.479                : 00:35:06.479
    00:43:12.423                : 00:43:12.423
    00:47:48.074                : 00:47:48.074
    00:52:24.433                : 00:52:24.433
    00:57:36.453                : 00:57:36.453
    01:01:04.786                : 01:01:04.786
    01:05:06.986                : 01:05:06.986
    01:07:03.394                : 01:07:03.394
    01:10:12.041                : 01:10:12.041
    01:12:11.536                : 01:12:11.536
    01:14:42.478                : 01:14:42.478
    01:16:40.012                : 01:16:40.012
    01:19:00.569                : 01:19:00.569
    01:23:14.198                : 01:23:14.198
    01:29:01.878                : 01:29:01.878

  • Peso: 3.40 GiB

Sinopsis

Descargar Saw II (2005) UNRATED 1080p Latino. «Decide rápido… o muere despacio». Cuando aparece una nueva víctima de asesinato con los signos característicos de Jigsaw, el Agente Eric Matthews (Donnie Wahlberg) se embarca en una investigación exhaustiva que le permite detener al asesino sin demasiado esfuerzo. Sin embargo, para Jigsaw ser detenido no es sino otra parte de su retorcido plan. Hay otras ocho víctimas jugándose la vida y ahora le toca a Matthews unirse al juego…

Ficha técnica

Video trailer de la película

Enlaces de descarga

Rip de Bluray

Descargar Saw II (2005) UNRATED 1080p Latino




Aportes de DPeliculasHDmega la pass es:dpeliculashdmega.org Aportes de CinemaniaHD la pass es:cinemaniahdd.com Aportes recientes:cinemaniahdd.net
Guardado en : HD 1080p , Terror
Etiquetado en :

Películas relacionadas

  • Amor, Mentiras y Sangre (2024) HD 1080p Latino

    Amor, Mentiras y Sangre (2024) HD 1080p Latino

    2024
    Amor, Mentiras y Sangre (2024) HD 1080p Latino

    1h 44m 2024

    Descargar Amor, Mentiras y Sangre (2024) HD 1080p Latino. Jackie está decidida a triunfar como culturista...

    Director: William Merritt Thomas

    Género: Crimen

    Actores: Tait Fletcher

  • Inmaculada (2024) HD 1080p Latino

    Inmaculada (2024) HD 1080p Latino

    2024
    Inmaculada (2024) HD 1080p Latino

    1h 29m 2024

    Descargar Inmaculada (2024) HD 1080p Latino. Cecilia, una mujer de fe devota, recibe una calurosa bienvenida...

    Director: Valentina Scuro

    Género: HD 1080p

    Actores: Viviane Florentine Nicolai

  • Inmaculada (2024) PLACEBO Full HD 1080p Latino

    Inmaculada (2024) PLACEBO Full HD 1080p Latino

    2024
    Inmaculada (2024) PLACEBO Full HD 1080p Latino

    1h 29m 2024

    Descargar Inmaculada (2024) PLACEBO Full HD 1080p Latino. Cecilia, una mujer de fe devota, recibe una...

    Director: Valentina Scuro

    Género: FULL 1080p Plateadas

    Actores: Viviane Florentine Nicolai

  • Inmaculada (2024) REMUX 1080p Latino

    Inmaculada (2024) REMUX 1080p Latino

    2024
    Inmaculada (2024) REMUX 1080p Latino

    1h 29m 2024

    Descargar Inmaculada (2024) REMUX 1080p Latino. Cecilia, una mujer de fe devota, recibe una calurosa...

    Director: Valentina Scuro

    Género: Misterio

    Actores: Viviane Florentine Nicolai

  • Immaculate (2024) AMZN WEB-DL 1080p Latino

    Immaculate (2024) AMZN WEB-DL 1080p Latino

    2024
    Immaculate (2024) AMZN WEB-DL 1080p Latino

    1h 29m 2024

    Cecilia, una mujer de fe devota, recibe una calurosa bienvenida en la perfecta campiña italiana, donde...

    Director: Valentina Scuro

    Género: Misterio

    Actores: Viviane Florentine Nicolai

descargar Saw II (2005) UNRATED 1080p Latino 1080p 1080p gratis, Saw II (2005) UNRATED 1080p Latino 1080p mega 1 link, Saw II (2005) UNRATED 1080p Latino 1080p pelicula completa, descargar Saw II (2005) UNRATED 1080p Latino 1080p gratis en mega.

Saw II (2005) UNRATED 1080p Latino pelicula full hd, Saw II (2005) UNRATED 1080p Latino mega latino, Saw II (2005) UNRATED 1080p Latino 4k latino, Saw II (2005) UNRATED 1080p Latino pelicula completa, Saw II (2005) UNRATED 1080p Latino descargar gratis, descargar Saw II (2005) UNRATED 1080p Latino pelicula latino, Saw II (2005) UNRATED 1080p Latino 1 link mega, Saw II (2005) UNRATED 1080p Latino 1 link google drive, Saw II (2005) UNRATED 1080p Latino hd 1080p latino.
Comentarios 0