×

¿Problemas para descargar con Mozilla, EDGE? Deshabilita la opción "Abrir vinculos en una pestaña nueva" tal como lo muestra ésta imagen.

Saw II (2005) UNRATED Full HD 1080p Latino

3.732 vistas

Información de Saw II (2005) UNRATED Full HD 1080p Latino

Datos de la película

  • Calidad: Full 1080p
  • Audio: Español Latino AC3 2.0 DVD - Ingles DTS 5.1 BLURAY
  • Subtitulos: Español Latino SRT - Ingles SRT
  • Resolución: 1920x1080p
  • Formato: MKV
  • Codec: H.264
  • Encoder: dpelis1
  • Mediainfo: Clic para Mostrar Datos Ver
  • Saw II (2005) Unrated FULL HD Latino-Ingles.mkv
    Format                      : Matroska
    Format version              : Version 4 / Version 2
    File size                   : 8.00 GiB
    Duration                    : 1 h 34 min
    Overall bit rate            : 12.1 Mb/s
    Encoded date                : UTC 2017-04-22 03:11:55 / UTC 2017-04-20T19:13:09Z
    Writing application         : mkvmerge v10.0.0 ('To Drown In You') 64bit
    Writing library             : libebml v1.3.4 + libmatroska v1.4.5 / Lavf57.7.2

    Video
    ID                          : 1
    Format                      : AVC
    Format/Info                 : Advanced Video Codec
    Format profile              : High@L4.1
    Format settings, CABAC      : Yes
    Format settings, ReFrames   : 4 frames
    Codec ID                    : V_MPEG4/ISO/AVC
    Duration                    : 1 h 34 min
    Bit rate                    : 10.2 Mb/s
    Width                       : 1 920 pixels
    Height                      : 1 080 pixels
    Display aspect ratio        : 16:9
    Frame rate mode             : Constant
    Frame rate                  : 23.976 (24000/1001) FPS
    Color space                 : YUV
    Chroma subsampling          : 4:2:0
    Bit depth                   : 8 bits
    Scan type                   : Progressive
    Bits/(Pixel*Frame)          : 0.204
    Stream size                 : 6.71 GiB (84%)
    Writing library             : x264 core 148 r2708 86b7198
    Encoding settings           : cabac=1 / ref=4 / deblock=1:0:0 / analyse=0x3:0x133 / me=esa / subme=10 / psy=1 / psy_rd=1.00:0.00 / mixed_ref=1 / me_range=24 / chroma_me=1 / trellis=2 / 8x8dct=1 / cqm=0 / deadzone=21,11 / fast_pskip=1 / chroma_qp_offset=-2 / threads=12 / lookahead_threads=2 / sliced_threads=0 / nr=0 / decimate=1 / interlaced=0 / bluray_compat=0 / constrained_intra=0 / bframes=8 / b_pyramid=2 / b_adapt=2 / b_bias=0 / direct=3 / weightb=1 / open_gop=0 / weightp=2 / keyint=240 / keyint_min=24 / scenecut=40 / intra_refresh=0 / rc_lookahead=60 / rc=crf / mbtree=1 / crf=20.0 / qcomp=0.60 / qpmin=0 / qpmax=69 / qpstep=4 / vbv_maxrate=62500 / vbv_bufsize=78125 / crf_max=0.0 / nal_hrd=none / filler=0 / ip_ratio=1.40 / aq=1:1.00
    Default                     : Yes
    Forced                      : No
    Color range                 : Limited
    Color primaries             : BT.709
    Transfer characteristics    : BT.709
    Matrix coefficients         : BT.709
    Statistics Tags Issue       : mkvmerge v10.0.0 ('To Drown In You') 64bit 2017-04-22 03:11:55 / mkvmerge v10.0.0 ('To Drown In You') 64bit 2017-04-22 03:11:55 / UTC 2017-04-20T19:13:09Z
    FromStats_BitRate           : 10402697
    FromStats_Duration          : 01:34:34.419000000
    FromStats_FrameCount        : 136050
    FromStats_StreamSize        : 7378658097

    Audio #1
    ID                          : 2
    Format                      : AC-3
    Format/Info                 : Audio Coding 3
    Format settings, Endianness : Big
    Codec ID                    : A_AC3
    Duration                    : 1 h 34 min
    Bit rate mode               : Constant
    Bit rate                    : 192 kb/s
    Channel(s)                  : 2 channels
    Channel positions           : Front: L R
    Sampling rate               : 44.1 kHz
    Frame rate                  : 28.711 FPS (1536 spf)
    Bit depth                   : 16 bits
    Compression mode            : Lossy
    Stream size                 : 130 MiB (2%)
    Language                    : Spanish
    Service kind                : Complete Main
    Default                     : Yes
    Forced                      : No
    Statistics Tags Issue       : mkvmerge v10.0.0 ('To Drown In You') 64bit 2017-04-22 03:11:55 / mkvmerge v10.0.0 ('To Drown In You') 64bit 2017-04-22 03:11:55 / UTC 2017-04-20T19:13:09Z
    FromStats_BitRate           : 191999
    FromStats_Duration          : 01:34:32.577000000
    FromStats_FrameCount        : 162865
    FromStats_StreamSize        : 136141844

    Audio #2
    ID                          : 3
    Format                      : DTS
    Format/Info                 : Digital Theater Systems
    Mode                        : 16
    Format settings, Endianness : Big
    Codec ID                    : A_DTS
    Duration                    : 1 h 34 min
    Bit rate mode               : Constant
    Bit rate                    : 1 509 kb/s
    Channel(s)                  : 6 channels
    Channel positions           : Front: L C R, Side: L R, LFE
    Sampling rate               : 48.0 kHz
    Frame rate                  : 93.750 FPS (512 spf)
    Bit depth                   : 24 bits
    Compression mode            : Lossy
    Stream size                 : 1 021 MiB (12%)
    Language                    : English
    Default                     : No
    Forced                      : No
    Statistics Tags Issue       : mkvmerge v10.0.0 ('To Drown In You') 64bit 2017-04-22 03:11:55 / mkvmerge v10.0.0 ('To Drown In You') 64bit 2017-04-22 03:11:55 / UTC 2017-04-20T19:13:09Z
    FromStats_BitRate           : 1509000
    FromStats_Duration          : 01:34:34.464000000
    FromStats_FrameCount        : 531981
    FromStats_StreamSize        : 1070345772

    Text #1
    ID                          : 4
    Format                      : UTF-8
    Codec ID                    : S_TEXT/UTF8
    Codec ID/Info               : UTF-8 Plain Text
    Default                     : Yes
    Forced                      : No
    Statistics Tags Issue       : mkvmerge v10.0.0 ('To Drown In You') 64bit 2017-04-22 03:11:55 / mkvmerge v10.0.0 ('To Drown In You') 64bit 2017-04-22 03:11:55 / UTC 2017-04-20T19:13:09Z
    FromStats_BitRate           : 91
    FromStats_Duration          : 00:00:10.100000000
    FromStats_FrameCount        : 1
    FromStats_StreamSize        : 115

    Text #2
    ID                          : 5
    Format                      : UTF-8
    Codec ID                    : S_TEXT/UTF8
    Codec ID/Info               : UTF-8 Plain Text
    Language                    : Spanish
    Default                     : No
    Forced                      : No
    Statistics Tags Issue       : mkvmerge v10.0.0 ('To Drown In You') 64bit 2017-04-22 03:11:55 / mkvmerge v10.0.0 ('To Drown In You') 64bit 2017-04-22 03:11:55 / UTC 2017-04-20T19:13:09Z
    FromStats_BitRate           : 53
    FromStats_Duration          : 01:26:54.519000000
    FromStats_FrameCount        : 1041
    FromStats_StreamSize        : 34932

    Text #3
    ID                          : 6
    Format                      : UTF-8
    Codec ID                    : S_TEXT/UTF8
    Codec ID/Info               : UTF-8 Plain Text
    Language                    : English
    Default                     : No
    Forced                      : No
    Statistics Tags Issue       : mkvmerge v10.0.0 ('To Drown In You') 64bit 2017-04-22 03:11:55 / mkvmerge v10.0.0 ('To Drown In You') 64bit 2017-04-22 03:11:55 / UTC 2017-04-20T19:13:09Z
    FromStats_BitRate           : 53
    FromStats_Duration          : 01:25:19.341000000
    FromStats_FrameCount        : 1090
    FromStats_StreamSize        : 34252

  • Peso: 7,00 GB

Sinopsis

Descargar Saw II (2005) UNRATED Full HD 1080p Latino. «Decide rápido… o muere despacio». Cuando aparece una nueva víctima de asesinato con los signos característicos de Jigsaw, el Agente Eric Matthews (Donnie Wahlberg) se embarca en una investigación exhaustiva que le permite detener al asesino sin demasiado esfuerzo. Sin embargo, para Jigsaw ser detenido no es sino otra parte de su retorcido plan. Hay otras ocho víctimas jugándose la vida y ahora le toca a Matthews unirse al juego…

SOLO RESUBIDA, MISMO RIP SUBIDO PREVIAMENTE!!!

Ficha técnica

Video trailer de la película

Enlaces de descarga

Rip de Bluray

Descargar Saw II (2005) UNRATED Full HD 1080p Latino




Aportes de DPeliculasHDmega la pass es:dpeliculashdmega.org Aportes de CinemaniaHD la pass es:cinemaniahdd.com Aportes recientes:cinemaniahdd.net
Guardado en : FULL 1080p Plateadas , Sagas , Terror
Etiquetado en :

Películas relacionadas

  • The Bodyguard (1992) Full HD 1080p Latino-CMHDD

    The Bodyguard (1992) Full HD 1080p Latino-CMHDD

    1992
    The Bodyguard (1992) Full HD 1080p Latino-CMHDD

    2h 9m 1992

    Descargar The Bodyguard (1992) Full HD 1080p Latino-CMHDD. Una cantante famosa que recibe constantes...

    Director: Mick Jackson

    Género: Acción

    Actores: Whitney Houston

  • One Day (2011) Full HD 1080p Latino-CMHDD

    One Day (2011) Full HD 1080p Latino-CMHDD

    2011
    One Day (2011) Full HD 1080p Latino-CMHDD

    1h 43m 2011

    Descargar One Day (2011) Full HD 1080p Latino-CMHDD. Emma y Dexter se conocen el día de su graduación...

    Director: Maj-Britt La Cour

    Género: Drama

    Actores: Ukweli Roach

  • Priscilla (2023) PLACEBO Full HD 1080p Latino

    Priscilla (2023) PLACEBO Full HD 1080p Latino

    2023
    Priscilla (2023) PLACEBO Full HD 1080p Latino

    1h 50m 2023

    Descargar Priscilla (2023) PLACEBO Full HD 1080p Latino. Cuando la adolescente Priscilla Beaulieu conoce...

    Director: Sofia Coppola

    Género: Drama

    Actores: Tonia Venneri

descargar Saw II (2005) UNRATED Full HD 1080p Latino Full 1080p 1080p gratis, Saw II (2005) UNRATED Full HD 1080p Latino Full 1080p mega 1 link, Saw II (2005) UNRATED Full HD 1080p Latino Full 1080p pelicula completa, descargar Saw II (2005) UNRATED Full HD 1080p Latino Full 1080p gratis en mega.

Saw II (2005) UNRATED Full HD 1080p Latino pelicula full hd, Saw II (2005) UNRATED Full HD 1080p Latino mega latino, Saw II (2005) UNRATED Full HD 1080p Latino 4k latino, Saw II (2005) UNRATED Full HD 1080p Latino pelicula completa, Saw II (2005) UNRATED Full HD 1080p Latino descargar gratis, descargar Saw II (2005) UNRATED Full HD 1080p Latino pelicula latino, Saw II (2005) UNRATED Full HD 1080p Latino 1 link mega, Saw II (2005) UNRATED Full HD 1080p Latino 1 link google drive, Saw II (2005) UNRATED Full HD 1080p Latino hd 1080p latino.
Comentarios 15