×

¿Problemas para descargar con Mozilla, EDGE? Deshabilita la opción "Abrir vinculos en una pestaña nueva" tal como lo muestra ésta imagen.

Saw I (2004) UNRATED REMUX 1080p Latino-CMHDD

191 vistas

Información de Saw I (2004) UNRATED REMUX 1080p Latino-CMHDD

Datos de la película

  • Calidad: Full 1080p
  • Audio: Español Latino AC3 2.0 DVD - Ingles DTS 5.1 BLURAY
  • Subtitulos: Español Latino SRT - Ingles SRT
  • Resolución: 1920x1080p
  • Formato: MKV
  • Codec: H.264
  • Encoder: CinefiloCool
  • Mediainfo: Clic para Mostrar Datos Ver
  • Saw I (2004) UNRATED REMUX 1080p Latino-CMHDD.mkv
    Format                      : Matroska
    Format version              : Version 4
    File size                   : 19.7 GiB
    Duration                    : 1 h 42 min
    Overall bit rate mode       : Variable
    Overall bit rate            : 27.4 Mb/s
    Movie name                  : Saw I (2004) CinemaniaHDD.Net
    Encoded date                : UTC 2021-10-25 02:13:18
    Writing application         : mkvmerge v56.1.0 ('My Friend') 64-bit
    Writing library             : libebml v1.4.2 + libmatroska v1.6.4
    Attachments                 : CINEMANIAHD.png

    Video
    ID                          : 1
    Format                      : VC-1
    Format profile              : Advanced@L3
    Codec ID                    : V_MS/VFW/FOURCC / WVC1
    Codec ID/Hint               : Microsoft
    Duration                    : 1 h 42 min
    Bit rate                    : 24.9 Mb/s
    Width                       : 1 920 pixels
    Height                      : 1 080 pixels
    Display aspect ratio        : 16:9
    Frame rate mode             : Constant
    Frame rate                  : 23.976 (24000/1001) FPS
    Color space                 : YUV
    Chroma subsampling          : 4:2:0
    Bit depth                   : 8 bits
    Scan type                   : Progressive
    Compression mode            : Lossy
    Bits/(Pixel*Frame)          : 0.501
    Stream size                 : 17.9 GiB (91%)
    Title                       : REMUX HD1080p [CinemaniaHDD]
    Default                     : Yes
    Forced                      : Yes

    Audio #1
    ID                          : 2
    Format                      : AC-3
    Format/Info                 : Audio Coding 3
    Commercial name             : Dolby Digital
    Codec ID                    : A_AC3
    Duration                    : 1 h 42 min
    Bit rate mode               : Constant
    Bit rate                    : 192 kb/s
    Channel(s)                  : 2 channels
    Channel layout              : L R
    Sampling rate               : 48.0 kHz
    Frame rate                  : 31.250 FPS (1536 SPF)
    Compression mode            : Lossy
    Stream size                 : 141 MiB (1%)
    Title                       : Español Latino [CinemaniaHDD]
    Language                    : Spanish
    Service kind                : Complete Main
    Default                     : Yes
    Forced                      : Yes

    Audio #2
    ID                          : 3
    Format                      : DTS ES XXCH XLL
    Format/Info                 : Digital Theater Systems
    Commercial name             : DTS-HD Master Audio
    Codec ID                    : A_DTS
    Duration                    : 1 h 42 min
    Bit rate mode               : Variable
    Bit rate                    : 2 291 kb/s
    Channel(s)                  : 7 channels
    Channel layout              : C L R Ls Rs LFE Cb
    Sampling rate               : 48.0 kHz
    Frame rate                  : 93.750 FPS (512 SPF)
    Bit depth                   : 16 bits
    Compression mode            : Lossless
    Stream size                 : 1.64 GiB (8%)
    Title                       : Ingles [CinemaniaHDD]
    Language                    : English
    Default                     : No
    Forced                      : No

    Text #1
    ID                          : 4
    Format                      : UTF-8
    Codec ID                    : S_TEXT/UTF8
    Codec ID/Info               : UTF-8 Plain Text
    Duration                    : 53 min 9 s
    Bit rate                    : 0 b/s
    Count of elements           : 9
    Stream size                 : 243 Bytes (0%)
    Title                       : Forzados-SRT [CinemaniaHDD]
    Language                    : Spanish
    Default                     : Yes
    Forced                      : Yes

    Text #2
    ID                          : 5
    Format                      : UTF-8
    Codec ID                    : S_TEXT/UTF8
    Codec ID/Info               : UTF-8 Plain Text
    Duration                    : 1 h 37 min
    Bit rate                    : 41 b/s
    Count of elements           : 797
    Stream size                 : 29.6 KiB (0%)
    Title                       : Español-SRT [CinemaniaHDD]
    Language                    : Spanish
    Default                     : No
    Forced                      : No

    Text #3
    ID                          : 6
    Format                      : UTF-8
    Codec ID                    : S_TEXT/UTF8
    Codec ID/Info               : UTF-8 Plain Text
    Duration                    : 1 h 37 min
    Bit rate                    : 39 b/s
    Count of elements           : 906
    Stream size                 : 28.0 KiB (0%)
    Title                       : Ingles [CinemaniaHDD]
    Language                    : English
    Default                     : No
    Forced                      : No

    Menu
    00:00:00.000                : 00:00:00.000
    00:02:39.409                : 00:02:39.409
    00:05:25.325                : 00:05:25.325
    00:08:13.868                : 00:08:13.868
    00:12:11.313                : 00:12:11.313
    00:15:30.721                : 00:15:30.721
    00:18:21.767                : 00:18:21.767
    00:20:59.466                : 00:20:59.466
    00:23:17.354                : 00:23:17.354
    00:26:17.242                : 00:26:17.242
    00:29:01.322                : 00:29:01.322
    00:32:30.323                : 00:32:30.323
    00:37:12.813                : 00:37:12.813
    00:40:28.843                : 00:40:28.843
    00:44:09.938                : 00:44:09.938
    00:47:09.368                : 00:47:09.368
    00:50:03.417                : 00:50:03.417
    00:52:27.144                : 00:52:27.144
    00:54:57.335                : 00:54:57.335
    00:58:47.982                : 00:58:47.982
    01:00:28.124                : 01:00:28.124
    01:03:03.488                : 01:03:03.488
    01:06:33.739                : 01:06:33.739
    01:10:48.661                : 01:10:48.661
    01:13:27.820                : 01:13:27.820
    01:15:34.530                : 01:15:34.530
    01:17:52.501                : 01:17:52.501
    01:20:14.810                : 01:20:14.810
    01:23:34.175                : 01:23:34.175
    01:25:31.751                : 01:25:31.751
    01:28:49.824                : 01:28:49.824
    01:33:03.578                : 01:33:03.578
    01:35:00.695                : 01:35:00.695
    01:38:45.920                : 01:38:45.920

  • Peso: 19.7 GiB

Sinopsis

Descargar Saw I (2004) UNRATED REMUX 1080p Latino-CMHDD. Un hombre llamado Adam se despierta encadenado a un tubo oxidado dentro de una decrépita cámara subterránea. A su lado, se encuentra otra persona encadenada, el Dr. Lawrence Gordon. Entre ellos hay un hombre muerto con un revolver calibre 38 en su mano. Ninguno de los dos sabe por qué están allí, sólo poseen un casette con instrucciones que dice que el Dr. Gordon debe matar a Adam en ocho horas. Si falla, ambos morirán, junto a la esposa del Dr. y su hija. Recordando una investigación de asesinato llevada a cabo por un detective llamado Tapp, el Dr. Gordon descubre que él y Adam están siendo victimas de un psicópata conocido como Jigsaw. Sólo les quedan unas horas para desenredar el complicado rompecabezas en el que están inmersos. El asesino les ha dejado únicamente unas pistas y dos sierras de mano, demasiados débiles para cortar la cadena que los ata, pero suficientemente fuertes para cortar carne y huesos…

DISPONIBLE SOLO PARA VIP!!

Nota:
– El Audio latino es del dvd, aparentemente adaptado (creditos al editor original) es de las versiones ya subidas anteriormente.
– La version unrated parece ser que se diferencia de la R-Rated en unicamente censuras de la MPAA en escenas graficas por lo que no considero tan escenciales subtitulos forzados.

Ficha técnica

Video trailer de la película

Enlaces de descarga

Rip de Bluray

Descargar Saw I (2004) UNRATED REMUX 1080p Latino-CMHDD


Aportes de DPeliculasHDmega la pass es:dpeliculashdmega.org Aportes de CinemaniaHD la pass es:cinemaniahdd.com
Guardado en : Crimen , Misterio , Remux , Terror

Películas relacionadas

  • Wire Room (2022) HD 1080p Latino

    Wire Room (2022) HD 1080p Latino

    2022
    Wire Room (2022) HD 1080p Latino

    1h 37m 2022

    Descargar Wire Room (2022) HD 1080p Latino. Mientras está de servicio en la sala de cables, un agente...

    Director: Matt Eskandari

    Género: Acción

    Actores: Texas Battle

  • Wire Room (2022) PLACEBO Full HD 1080p Latino

    Wire Room (2022) PLACEBO Full HD 1080p Latino

    2022
    Wire Room (2022) PLACEBO Full HD 1080p Latino

    1h 37m 2022

    Descargar Wire Room (2022) PLACEBO Full HD 1080p Latino. Mientras está de servicio en la sala de cables,...

    Director: Matt Eskandari

    Género: Acción

    Actores: Texas Battle

  • Wire Room (2022) REMUX 1080p Latino

    Wire Room (2022) REMUX 1080p Latino

    2022
    Wire Room (2022) REMUX 1080p Latino

    1h 37m 2022

    Descargar Wire Room (2022) REMUX 1080p Latino. Mientras está de servicio en la sala de cables, un agente...

    Director: Matt Eskandari

    Género: Acción

    Actores: Texas Battle

  • Alarido (2022) HD 1080p Latino

    Alarido (2022) HD 1080p Latino

    2022
    Alarido (2022) HD 1080p Latino

    1h 29m 2022

    Descargar Alarido (2022) HD 1080p Latino. Una joven madre soltera es cautiva junto con sus dos hijos...

    Director: D.J. Caruso

    Género: HD 1080p

    Actores: Vincent Gallo

  • Alarido (2022) PLACEBO Full HD 1080p Latino

    Alarido (2022) PLACEBO Full HD 1080p Latino

    2022
    Alarido (2022) PLACEBO Full HD 1080p Latino

    1h 29m 2022

    Descargar Alarido (2022) PLACEBO Full HD 1080p Latino. Una joven madre soltera es cautiva junto con sus...

    Director: D.J. Caruso

    Género: FULL 1080p Plateadas

    Actores: Vincent Gallo

descargar Saw I (2004) UNRATED REMUX 1080p Latino-CMHDD Full 1080p 1080p gratis, Saw I (2004) UNRATED REMUX 1080p Latino-CMHDD Full 1080p mega 1 link, Saw I (2004) UNRATED REMUX 1080p Latino-CMHDD Full 1080p pelicula completa, descargar Saw I (2004) UNRATED REMUX 1080p Latino-CMHDD Full 1080p gratis en mega.

Saw I (2004) UNRATED REMUX 1080p Latino-CMHDD pelicula full hd, Saw I (2004) UNRATED REMUX 1080p Latino-CMHDD mega latino, Saw I (2004) UNRATED REMUX 1080p Latino-CMHDD 4k latino, Saw I (2004) UNRATED REMUX 1080p Latino-CMHDD pelicula completa, Saw I (2004) UNRATED REMUX 1080p Latino-CMHDD descargar gratis, descargar Saw I (2004) UNRATED REMUX 1080p Latino-CMHDD pelicula latino, Saw I (2004) UNRATED REMUX 1080p Latino-CMHDD 1 link mega, Saw I (2004) UNRATED REMUX 1080p Latino-CMHDD 1 link google drive, Saw I (2004) UNRATED REMUX 1080p Latino-CMHDD hd 1080p latino.
Comentarios 0