×

¿Problemas para descargar con Mozilla, EDGE? Deshabilita la opción "Abrir vinculos en una pestaña nueva" tal como lo muestra ésta imagen.

Saw (2004) Director’s cut REMUX 4K HDR Latino – CMHDD

317 vistas

Información de Saw (2004) Director’s cut REMUX 4K HDR Latino – CMHDD

Datos de la película

  • Calidad: Full 1080p
  • Audio: Se especifica abajo de la Sinopsis
  • Subtitulos: Español Latino PGS
  • Resolución: 3840x2160p
  • Formato: MKV
  • Codec: H.264
  • Encoder: Dracarys
  • Mediainfo: Clic para Mostrar Datos Ver
  • Format                      : Matroska
    Format version              : Version 4
    File size                   : 59.8 GiB
    Duration                    : 1 h 42 min
    Overall bit rate mode       : Variable
    Overall bit rate            : 83.3 Mb/s
    Movie name                  : Saw (2004) Director's cut REMUX 4K Latino - CMHDD
    Encoded date                : UTC 2021-05-05 06:09:57
    Writing application         : mkvmerge v56.1.0 ('My Friend') 64-bit
    Writing library             : libebml v1.4.2 + libmatroska v1.6.4

    Video
    ID                          : 1
    ID in the original source m : 4113 (0x1011)
    Format                      : HEVC
    Format/Info                 : High Efficiency Video Coding
    Format profile              : Main 10@L5.1@High
    HDR format                  : SMPTE ST 2086, HDR10 compatible
    Codec ID                    : V_MPEGH/ISO/HEVC
    Duration                    : 1 h 42 min
    Bit rate                    : 78.3 Mb/s
    Width                       : 3 840 pixels
    Height                      : 2 160 pixels
    Display aspect ratio        : 16:9
    Frame rate mode             : Constant
    Frame rate                  : 23.976 (24000/1001) FPS
    Color space                 : YUV
    Chroma subsampling          : 4:2:0 (Type 2)
    Bit depth                   : 10 bits
    Bits/(Pixel*Frame)          : 0.394
    Stream size                 : 56.2 GiB (94%)
    Default                     : Yes
    Forced                      : No
    Color range                 : Limited
    Color primaries             : BT.2020
    Transfer characteristics    : PQ
    Matrix coefficients         : BT.2020 non-constant
    Mastering display color pri : Display P3
    Mastering display luminance : min: 0.0010 cd/m2, max: 1000 cd/m2
    Maximum Content Light Level : 973 cd/m2
    Maximum Frame-Average Light : 838 cd/m2
    Original source medium      : Blu-ray

    Audio #1
    ID                          : 2
    Format                      : AC-3
    Format/Info                 : Audio Coding 3
    Codec ID                    : A_AC3
    Duration                    : 1 h 42 min
    Bit rate                    : 320 kb/s
    Channel(s)                  : 2 channels
    Sampling rate               : 48.0 kHz
    Frame rate                  : 31.250 FPS (1536 SPF)
    Compression mode            : Lossy
    Stream size                 : 235 MiB (0%)
    Language                    : Spanish
    Default                     : Yes
    Forced                      : Yes

    Audio #2
    ID                          : 3
    Format                      : MLP FBA 16-ch
    Format/Info                 : Meridian Lossless Packing FBA with 16-channel presentation
    Commercial name             : Dolby TrueHD with Dolby Atmos
    Codec ID                    : A_TRUEHD
    Duration                    : 1 h 42 min
    Bit rate mode               : Variable
    Bit rate                    : 3 959 kb/s
    Maximum bit rate            : 6 207 kb/s
    Channel(s)                  : 8 channels
    Channel layout              : L R C LFE Ls Rs Lb Rb
    Sampling rate               : 48.0 kHz
    Frame rate                  : 1 200.000 FPS (40 SPF)
    Compression mode            : Lossless
    Stream size                 : 2.84 GiB (5%)
    Language                    : English
    Default                     : No
    Forced                      : No
    Number of dynamic objects   : 15
    Bed channel count           : 1 channel
    Bed channel configuration   : LFE

    Audio #3
    ID                          : 4
    Format                      : AC-3
    Format/Info                 : Audio Coding 3
    Commercial name             : Dolby Digital
    Codec ID                    : A_AC3
    Duration                    : 1 h 42 min
    Bit rate mode               : Constant
    Bit rate                    : 640 kb/s
    Channel(s)                  : 6 channels
    Channel layout              : L R C LFE Ls Rs
    Sampling rate               : 48.0 kHz
    Frame rate                  : 31.250 FPS (1536 SPF)
    Compression mode            : Lossy
    Stream size                 : 471 MiB (1%)
    Language                    : English
    Service kind                : Complete Main
    Default                     : No
    Forced                      : No

    Text
    ID                          : 5
    Format                      : PGS
    Muxing mode                 : zlib
    Codec ID                    : S_HDMV/PGS
    Codec ID/Info               : Picture based subtitle format used on BDs/HD-DVDs
    Duration                    : 1 h 41 min
    Bit rate                    : 23.7 kb/s
    Count of elements           : 1844
    Stream size                 : 17.3 MiB (0%)
    Language                    : Spanish
    Default                     : No
    Forced                      : No

    Menu
    00:00:00.000                : Main Title/Opening Credits
    00:01:10.320                : Cold Awakening
    00:02:16.303                : A Bloody Revelation
    00:05:31.289                : Envelopes Of Surprises
    00:08:19.666                : Let The Game Begin
    00:12:16.861                : Follow Your Heart
    00:15:36.102                : The Beginning
    00:18:26.981                : The Jigsaw Killer
    00:21:05.431                : Questioning Dr. Gordon
    00:23:22.234                : Amanda's Story
    00:26:21.955                : The Puppet
    00:29:05.869                : Back In The Bathroom
    00:32:33.702                : The Gordon Family
    00:37:16.860                : Regards
    00:40:32.722                : Tapp's Obsession
    00:44:13.568                : Searching For Clues
    00:47:14.415                : Jigsaw's Lair
    00:50:08.714                : Standoff
    00:52:32.274                : Sing Seals His Fate
    00:55:00.380                : X Marks The Spot
    00:58:51.778                : The Garage
    01:00:32.254                : Adam Comes Clean
    01:03:06.032                : Dr. Gordon's Plan
    01:06:39.037                : Flashback
    01:10:53.458                : The Phone Call
    01:13:33.701                : Degrees Of Separation
    01:15:38.534                : Unfaithful
    01:17:58.132                : Bob
    01:20:20.024                : Out Of Time
    01:23:38.472                : Alison Takes Charge
    01:25:37.966                : Tapp To The Rescue
    01:29:21.064                : Critical Decision
    01:33:08.708                : Finishing The Job
    01:35:12.290                : Game Over
    01:38:50.341                : End Credits

  • Peso: 59.8 GiB

Sinopsis

Un hombre llamado Adam se despierta encadenado a un tubo oxidado dentro de una decrépita cámara subterránea. A su lado, se encuentra otra persona encadenada, el Dr. Lawrence Gordon. Entre ellos hay un hombre muerto con un revolver calibre 38 en su mano. Ninguno de los dos sabe por qué están allí, sólo poseen un casette con instrucciones que dice que el Dr. Gordon debe matar a Adam en ocho horas. Si falla, ambos morirán, junto a la esposa del Dr. y su hija. Recordando una investigación de asesinato llevada a cabo por un detective llamado Tapp, el Dr. Gordon descubre que él y Adam están siendo victimas de un psicópata conocido como Jigsaw. Sólo les quedan unas horas para desenredar el complicado rompecabezas en el que están inmersos. El asesino les ha dejado únicamente unas pistas y dos sierras de mano, demasiados débiles para cortar la cadena que los ata, pero suficientemente fuertes para cortar carne y huesos…

 

Latino: AC3 2.0 DVD  –  Ingles: TrueHD 7.1 + AC3 5.1 BluRay 4K

Ficha técnica

Video trailer de la película

Enlaces de descarga

Rip de Bluray

Descargar Saw (2004) Director’s cut REMUX 4K HDR Latino – CMHDD


Aportes de DPeliculasHDmega la pass es:dpeliculashdmega.org Aportes de CinemaniaHD la pass es:cinemaniahdd.com
Guardado en : Crimen , Misterio , Terror

Películas relacionadas

  • Paradise Highway (2022) HD 1080p Latino

    Paradise Highway (2022) HD 1080p Latino

    2022
    Paradise Highway (2022) HD 1080p Latino

    1h 55m 2022

    Descargar Paradise Highway (2022) HD 1080p Latino. Un camionero se ha visto obligado a pasar de contrabando...

    Director: Anna Gutto

    Género: Crimen

    Actores: Xavier Scott Evans

  • Paradise Highway (2022) PLACEBO Full HD 1080p Latino

    Paradise Highway (2022) PLACEBO Full HD 1080p Latino

    2022
    Paradise Highway (2022) PLACEBO Full HD 1080p Latino

    1h 55m 2022

    Descargar Paradise Highway (2022) PLACEBO Full HD 1080p Latino. Un camionero se ha visto obligado a pasar...

    Director: Anna Gutto

    Género: Crimen

    Actores: Xavier Scott Evans

  • Paradise Highway (2022) REMUX 1080p Latino

    Paradise Highway (2022) REMUX 1080p Latino

    2022
    Paradise Highway (2022) REMUX 1080p Latino

    1h 55m 2022

    Descargar Paradise Highway (2022) REMUX 1080p Latino. Un camionero se ha visto obligado a pasar de contrabando...

    Director: Anna Gutto

    Género: Crimen

    Actores: Xavier Scott Evans

descargar Saw (2004) Director’s cut REMUX 4K HDR Latino – CMHDD Full 1080p 1080p gratis, Saw (2004) Director’s cut REMUX 4K HDR Latino – CMHDD Full 1080p mega 1 link, Saw (2004) Director’s cut REMUX 4K HDR Latino – CMHDD Full 1080p pelicula completa, descargar Saw (2004) Director’s cut REMUX 4K HDR Latino – CMHDD Full 1080p gratis en mega.

Saw (2004) Director’s cut REMUX 4K HDR Latino – CMHDD pelicula full hd, Saw (2004) Director’s cut REMUX 4K HDR Latino – CMHDD mega latino, Saw (2004) Director’s cut REMUX 4K HDR Latino – CMHDD 4k latino, Saw (2004) Director’s cut REMUX 4K HDR Latino – CMHDD pelicula completa, Saw (2004) Director’s cut REMUX 4K HDR Latino – CMHDD descargar gratis, descargar Saw (2004) Director’s cut REMUX 4K HDR Latino – CMHDD pelicula latino, Saw (2004) Director’s cut REMUX 4K HDR Latino – CMHDD 1 link mega, Saw (2004) Director’s cut REMUX 4K HDR Latino – CMHDD 1 link google drive, Saw (2004) Director’s cut REMUX 4K HDR Latino – CMHDD hd 1080p latino.