Save Yourselves! (2020) PLACEBO Full HD 1080p Latino

24 vistas
1 estrella2 estrellas3 estrellas4 estrellas5 estrellas (1 votos, promedio: 5,00 de 5)
Cargando...

Información de Save Yourselves! (2020) PLACEBO Full HD 1080p Latino

Datos de la película

  • Calidad: Full 1080p
  • Audio: Se especifica abajo de la Sinopsis
  • Subtitulos: Español Latino SRT- FORZADOS SRT
  • Resolución: 1920x1080p
  • Formato: MKV
  • Codec: H.264
  • Encoder: Melkor
  • Mediainfo: Clic para Mostrar Datos Ver
  • ¡Desconectados! (2020) PLACEBO Full HD 1080p Latino-CMHDD.mkv
    Format                      : Matroska
    Format version              : Version 4
    File size                   : 5.92 GiB
    Duration                    : 1 h 33 min
    Overall bit rate            : 9 024 kb/s
    Movie name                  : Save Yourselves (2020) CinemaniaHDD.Net
    Encoded date                : UTC 2020-10-08 03:03:17
    Writing application         : mkvmerge v51.0.0 ('I Wish') 64-bit
    Writing library             : libebml v1.4.0 + libmatroska v1.6.2
    Attachments                 : CINEMANIAHD.png

    Video
    ID                          : 1
    Format                      : AVC
    Format/Info                 : Advanced Video Codec
    Format profile              : High@L4.1
    Format settings             : CABAC / 4 Ref Frames
    Format settings, CABAC      : Yes
    Format settings, Reference  : 4 frames
    Codec ID                    : V_MPEG4/ISO/AVC
    Duration                    : 1 h 33 min
    Bit rate                    : 6 872 kb/s
    Width                       : 1 920 pixels
    Height                      : 1 080 pixels
    Display aspect ratio        : 16:9
    Frame rate mode             : Constant
    Frame rate                  : 23.976 (24000/1001) FPS
    Color space                 : YUV
    Chroma subsampling          : 4:2:0
    Bit depth                   : 8 bits
    Scan type                   : Progressive
    Bits/(Pixel*Frame)          : 0.138
    Stream size                 : 4.51 GiB (76%)
    Title                       : Full HD1080p [CinemaniaHDD
    Writing library             : x264 core 157 r2935 545de2f
    Encoding settings           : cabac=1 / ref=4 / deblock=1:0:0 / analyse=0x3:0x133 / me=tesa / subme=11 / psy=1 / psy_rd=1.00:0.00 / mixed_ref=1 / me_range=24 / chroma_me=1 / trellis=2 / 8x8dct=1 / cqm=0 / deadzone=21,11 / fast_pskip=0 / chroma_qp_offset=-2 / threads=24 / lookahead_threads=6 / sliced_threads=0 / nr=0 / decimate=1 / interlaced=0 / bluray_compat=0 / constrained_intra=0 / bframes=16 / b_pyramid=2 / b_adapt=2 / b_bias=0 / direct=3 / weightb=1 / open_gop=0 / weightp=2 / keyint=240 / keyint_min=24 / scenecut=40 / intra_refresh=0 / rc_lookahead=60 / rc=crf / mbtree=1 / crf=20.0 / qcomp=0.60 / qpmin=0 / qpmax=69 / qpstep=4 / vbv_maxrate=62500 / vbv_bufsize=78125 / crf_max=0.0 / nal_hrd=none / filler=0 / ip_ratio=1.40 / aq=1:1.00
    Default                     : Yes
    Forced                      : Yes
    Color range                 : Limited
    Color primaries             : BT.709
    Transfer characteristics    : BT.709
    Matrix coefficients         : BT.709

    Audio #1
    ID                          : 2
    Format                      : AC-3
    Format/Info                 : Audio Coding 3
    Commercial name             : Dolby Digital
    Codec ID                    : A_AC3
    Duration                    : 1 h 33 min
    Bit rate mode               : Constant
    Bit rate                    : 640 kb/s
    Channel(s)                  : 6 channels
    Channel layout              : L R C LFE Ls Rs
    Sampling rate               : 48.0 kHz
    Frame rate                  : 31.250 FPS (1536 SPF)
    Compression mode            : Lossy
    Stream size                 : 430 MiB (7%)
    Title                       : Español Latino [CinemaniaHDD]
    Language                    : Spanish
    Service kind                : Complete Main
    Default                     : Yes
    Forced                      : No

    Audio #2
    ID                          : 3
    Format                      : DTS
    Format/Info                 : Digital Theater Systems
    Codec ID                    : A_DTS
    Duration                    : 1 h 33 min
    Bit rate mode               : Constant
    Bit rate                    : 1 509 kb/s
    Channel(s)                  : 6 channels
    Channel layout              : C L R Ls Rs LFE
    Sampling rate               : 48.0 kHz
    Frame rate                  : 93.750 FPS (512 SPF)
    Bit depth                   : 24 bits
    Compression mode            : Lossy
    Stream size                 : 1 014 MiB (17%)
    Title                       : Ingles [CinemaniaHDD]
    Language                    : English
    Default                     : No
    Forced                      : No

    Text #1
    ID                          : 4
    Format                      : UTF-8
    Codec ID                    : S_TEXT/UTF8
    Codec ID/Info               : UTF-8 Plain Text
    Duration                    : 13 min 15 s
    Bit rate                    : 1 b/s
    Count of elements           : 3
    Stream size                 : 131 Bytes (0%)
    Title                       : Forzados-SRT [CinemaniaHDD]
    Language                    : Spanish
    Default                     : Yes
    Forced                      : No

    Text #2
    ID                          : 5
    Format                      : UTF-8
    Codec ID                    : S_TEXT/UTF8
    Codec ID/Info               : UTF-8 Plain Text
    Duration                    : 1 h 29 min
    Bit rate                    : 61 b/s
    Count of elements           : 1294
    Stream size                 : 40.2 KiB (0%)
    Title                       : Español-SRT [CinemaniaHDD]
    Language                    : Spanish
    Default                     : No
    Forced                      : No

    Text #3
    ID                          : 6
    Format                      : UTF-8
    Codec ID                    : S_TEXT/UTF8
    Codec ID/Info               : UTF-8 Plain Text
    Duration                    : 1 h 29 min
    Bit rate                    : 65 b/s
    Count of elements           : 1296
    Stream size                 : 42.7 KiB (0%)
    Title                       : Ingles-SRT [CinemaniaHDD]
    Language                    : English
    Default                     : No
    Forced                      : No

    Menu
    00:00:00.000                : en:Chapter 1
    00:05:14.063                : en:Chapter 2
    00:10:38.095                : en:Chapter 3
    00:14:28.701                : en:Chapter 4
    00:20:34.566                : en:Chapter 5
    00:23:35.872                : en:Chapter 6
    00:28:41.594                : en:Chapter 7
    00:31:34.976                : en:Chapter 8
    00:37:46.514                : en:Chapter 9
    00:42:27.795                : en:Chapter 10
    00:47:54.288                : en:Chapter 11
    00:52:49.791                : en:Chapter 12
    00:57:17.642                : en:Chapter 13
    00:59:33.736                : en:Chapter 14
    01:04:16.769                : en:Chapter 15
    01:10:22.468                : en:Chapter 16
    01:15:38.784                : en:Chapter 17
    01:22:55.887                : en:Chapter 18
    01:25:56.693                : en:Chapter 19
    01:30:59.704                : en:Chapter 20

  • Peso: 5.92 GiB

Sinopsis

Descargar Save Yourselves! [¡Desconectados!] (2020) PLACEBO Full HD 1080p Latino. Una joven pareja de Brooklyn decide mudarse al norte del estado para desconectar de sus teléfonos móviles y reconectar con ellos mismos. Alejados de los medios de comunicación, desconocen la noticia de que el mundo está recibiendo una invasión alienígena.

Español Latino AC3 5.1 Amazon  – Ingles DTS 5.1 Bluray
Creditos: CinemaniaHD

Ficha técnica

Video trailer de la película

Enlaces de descarga

Rip de Bluray

Descargar Save Yourselves! (2020) PLACEBO Full HD 1080p Latino




Aportes de DPeliculasHDmega la pass es:dpeliculashdmega.org Aportes de CinemaniaHD la pass es:cinemaniahdd.com

Películas relacionadas

Comentarios 0