×

¿Problemas para descargar con Mozilla, EDGE? Deshabilita la opción "Abrir vinculos en una pestaña nueva" tal como lo muestra ésta imagen.

Saturday Night Fever (1977) REMUX 1080p Latino – CMHDD

342 vistas

Información de Saturday Night Fever (1977) REMUX 1080p Latino – CMHDD

Datos de la película

  • Calidad: Full 1080p
  • Audio: Español Latino AC3 2.0 BLURAY - Ingles AC3 5.1 BLURAY
  • Subtitulos: Español Latino PGS
  • Resolución: 1920x1080p
  • Formato: MKV
  • Codec: H.264
  • Encoder: Dracarys
  • Mediainfo: Clic para Mostrar Datos Ver
  • Format                      : Matroska
    Format version              : Version 4
    File size                   : 27.3 GiB
    Duration                    : 1 h 59 min
    Overall bit rate mode       : Variable
    Overall bit rate            : 32.8 Mb/s
    Movie name                  : Saturday Night Fever (1977) REMUX 1080p Latino - CMHDD
    Encoded date                : UTC 2023-04-07 00:46:36
    Writing application         : mkvmerge v47.0.0 ('Black Flag') 64-bit
    Writing library             : libebml v1.3.10 + libmatroska v1.5.2
    Cover                       : Yes
    Attachments                 : cover.jpg

    Video
    ID                          : 1
    ID in the original source m : 4113 (0x1011)
    Format                      : AVC
    Format/Info                 : Advanced Video Codec
    Format profile              : High@L4.1
    Format settings             : CABAC / 4 Ref Frames
    Format settings, CABAC      : Yes
    Format settings, Reference  : 4 frames
    Codec ID                    : V_MPEG4/ISO/AVC
    Duration                    : 1 h 59 min
    Bit rate mode               : Variable
    Bit rate                    : 28.5 Mb/s
    Maximum bit rate            : 35.5 Mb/s
    Width                       : 1 920 pixels
    Height                      : 1 080 pixels
    Display aspect ratio        : 16:9
    Frame rate mode             : Constant
    Frame rate                  : 23.976 (24000/1001) FPS
    Color space                 : YUV
    Chroma subsampling          : 4:2:0
    Bit depth                   : 8 bits
    Scan type                   : Progressive
    Bits/(Pixel*Frame)          : 0.573
    Stream size                 : 23.7 GiB (87%)
    Default                     : Yes
    Forced                      : No
    Color range                 : Limited
    Color primaries             : BT.709
    Transfer characteristics    : BT.709
    Matrix coefficients         : BT.709
    Original source medium      : Blu-ray

    Audio #1
    ID                          : 2
    ID in the original source m : 4352 (0x1100)
    Format                      : MLP FBA
    Format/Info                 : Meridian Lossless Packing FBA
    Commercial name             : Dolby TrueHD
    Codec ID                    : A_TRUEHD
    Duration                    : 1 h 59 min
    Bit rate mode               : Variable
    Bit rate                    : 3 389 kb/s
    Maximum bit rate            : 4 950 kb/s
    Channel(s)                  : 6 channels
    Channel layout              : L R C LFE Ls Rs
    Sampling rate               : 48.0 kHz
    Frame rate                  : 1 200.000 FPS (40 SPF)
    Compression mode            : Lossless
    Stream size                 : 2.82 GiB (10%)
    Language                    : English
    Default                     : No
    Forced                      : No
    Original source medium      : Blu-ray

    Audio #2
    ID                          : 3
    ID in the original source m : 4352 (0x1100)
    Format                      : AC-3
    Format/Info                 : Audio Coding 3
    Commercial name             : Dolby Digital
    Codec ID                    : A_AC3
    Duration                    : 1 h 59 min
    Bit rate mode               : Constant
    Bit rate                    : 640 kb/s
    Channel(s)                  : 6 channels
    Channel layout              : L R C LFE Ls Rs
    Sampling rate               : 48.0 kHz
    Frame rate                  : 31.250 FPS (1536 SPF)
    Compression mode            : Lossy
    Stream size                 : 545 MiB (2%)
    Language                    : English
    Service kind                : Complete Main
    Default                     : No
    Forced                      : No
    Original source medium      : Blu-ray

    Audio #3
    ID                          : 4
    ID in the original source m : 4354 (0x1102)
    Format                      : AC-3
    Format/Info                 : Audio Coding 3
    Commercial name             : Dolby Digital
    Codec ID                    : A_AC3
    Duration                    : 1 h 59 min
    Bit rate mode               : Constant
    Bit rate                    : 224 kb/s
    Channel(s)                  : 2 channels
    Channel layout              : L R
    Sampling rate               : 48.0 kHz
    Frame rate                  : 31.250 FPS (1536 SPF)
    Compression mode            : Lossy
    Stream size                 : 191 MiB (1%)
    Language                    : Spanish
    Service kind                : Complete Main
    Default                     : Yes
    Forced                      : No
    Original source medium      : Blu-ray

    Text
    ID                          : 5
    ID in the original source m : 4611 (0x1203)
    Format                      : PGS
    Muxing mode                 : zlib
    Codec ID                    : S_HDMV/PGS
    Codec ID/Info               : Picture based subtitle format used on BDs/HD-DVDs
    Duration                    : 1 h 55 min
    Bit rate                    : 37.7 kb/s
    Frame rate                  : 0.437 FPS
    Count of elements           : 3022
    Stream size                 : 31.0 MiB (0%)
    Language                    : Spanish
    Default                     : No
    Forced                      : No
    Original source medium      : Blu-ray

    Menu
    00:00:00.000                : en:Capítulo 01
    00:06:39.065                : en:Capítulo 02
    00:10:35.426                : en:Capítulo 03
    00:13:00.112                : en:Capítulo 04
    00:20:23.096                : en:Capítulo 05
    00:23:18.146                : en:Capítulo 06
    00:30:18.107                : en:Capítulo 07
    00:34:23.519                : en:Capítulo 08
    00:39:13.768                : en:Capítulo 09
    00:51:54.111                : en:Capítulo 10
    00:58:33.551                : en:Capítulo 11
    01:01:47.370                : en:Capítulo 12
    01:09:13.983                : en:Capítulo 13
    01:11:27.825                : en:Capítulo 14
    01:18:43.093                : en:Capítulo 15
    01:27:40.004                : en:Capítulo 16
    01:32:17.490                : en:Capítulo 17
    01:39:56.991                : en:Capítulo 18
    01:45:43.962                : en:Capítulo 19
    01:50:25.910                : en:Capítulo 20
    01:52:33.705                : en:Capítulo 21

  • Peso: 27.3 GiB

Sinopsis

En Nueva York, después de trabajar toda la semana en una tienda de pinturas de Brooklyn, Tony Manero (John Travolta) se prepara esmeradamente para disfrutar de la noche del sábado: se empapa en colonia Brut, se pone una camisa de flores ajustada, pantalones de tela de gabardina y zapatos de plataforma. En la discoteca de moda, Tony deslumbrará a todos con lo que mejor sabe hacer: bailar.

Ficha técnica

Video trailer de la película

Enlaces de descarga

Rip de Bluray

Descargar Saturday Night Fever (1977) REMUX 1080p Latino – CMHDD


Aportes de DPeliculasHDmega la pass es:dpeliculashdmega.org Aportes de CinemaniaHD la pass es:cinemaniahdd.com Aportes recientes:cinemaniahdd.net
Guardado en : Drama , Música

Películas relacionadas

descargar Saturday Night Fever (1977) REMUX 1080p Latino – CMHDD Full 1080p 1080p gratis, Saturday Night Fever (1977) REMUX 1080p Latino – CMHDD Full 1080p mega 1 link, Saturday Night Fever (1977) REMUX 1080p Latino – CMHDD Full 1080p pelicula completa, descargar Saturday Night Fever (1977) REMUX 1080p Latino – CMHDD Full 1080p gratis en mega.

Saturday Night Fever (1977) REMUX 1080p Latino – CMHDD pelicula full hd, Saturday Night Fever (1977) REMUX 1080p Latino – CMHDD mega latino, Saturday Night Fever (1977) REMUX 1080p Latino – CMHDD 4k latino, Saturday Night Fever (1977) REMUX 1080p Latino – CMHDD pelicula completa, Saturday Night Fever (1977) REMUX 1080p Latino – CMHDD descargar gratis, descargar Saturday Night Fever (1977) REMUX 1080p Latino – CMHDD pelicula latino, Saturday Night Fever (1977) REMUX 1080p Latino – CMHDD 1 link mega, Saturday Night Fever (1977) REMUX 1080p Latino – CMHDD 1 link google drive, Saturday Night Fever (1977) REMUX 1080p Latino – CMHDD hd 1080p latino.
Comentarios 0