×

¿Problemas para descargar con Mozilla, EDGE? Deshabilita la opción "Abrir vinculos en una pestaña nueva" tal como lo muestra ésta imagen.

SAS: El ascenso del Cisne Negro (2021) REMUX 1080p Latino

208 vistas

Información de SAS: El ascenso del Cisne Negro (2021) REMUX 1080p Latino

Datos de la película

  • Calidad: Full 1080p
  • Audio: Español Latino AC3 5.1 Netflix - Ingles DTS 5.1 BLURAY
  • Subtitulos: Español Latino SRT- FORZADOS SRT
  • Resolución: 1920x1080p
  • Formato: MKV
  • Codec: H.264
  • Encoder: Melkor
  • Mediainfo: Clic para Mostrar Datos Ver
  • SAS El Ascenso Del Cisne Negro (2021) REMUX 1080p Latino.mkv
    Format                      : Matroska
    Format version              : Version 4
    File size                   : 28.8 GiB
    Duration                    : 2 h 3 min
    Overall bit rate mode       : Variable
    Overall bit rate            : 33.3 Mb/s
    Movie name                  : SAS - Red Notice (2021) CinemaniaHDD.Net
    Encoded date                : UTC 2021-08-28 06:14:33
    Writing application         : mkvmerge v56.1.0 ('My Friend') 64-bit
    Writing library             : libebml v1.4.2 + libmatroska v1.6.4
    Attachments                 : CINEMANIAHD.png

    Video
    ID                          : 1
    ID in the original source m : 4113 (0x1011)
    Format                      : AVC
    Format/Info                 : Advanced Video Codec
    Format profile              : High@L4.1
    Format settings             : CABAC / 3 Ref Frames
    Format settings, CABAC      : Yes
    Format settings, Reference  : 3 frames
    Codec ID                    : V_MPEG4/ISO/AVC
    Duration                    : 2 h 3 min
    Bit rate mode               : Variable
    Bit rate                    : 29.0 Mb/s
    Maximum bit rate            : 35.0 Mb/s
    Width                       : 1 920 pixels
    Height                      : 1 080 pixels
    Display aspect ratio        : 16:9
    Frame rate mode             : Constant
    Frame rate                  : 23.976 (24000/1001) FPS
    Color space                 : YUV
    Chroma subsampling          : 4:2:0
    Bit depth                   : 8 bits
    Scan type                   : Progressive
    Bits/(Pixel*Frame)          : 0.583
    Stream size                 : 25.1 GiB (87%)
    Title                       : REMUX HD1080p [CinemaniaHDD]
    Default                     : Yes
    Forced                      : Yes
    Original source medium      : Blu-ray

    Audio #1
    ID                          : 2
    Format                      : AC-3
    Format/Info                 : Audio Coding 3
    Commercial name             : Dolby Digital
    Codec ID                    : A_AC3
    Duration                    : 2 h 3 min
    Bit rate mode               : Constant
    Bit rate                    : 640 kb/s
    Channel(s)                  : 6 channels
    Channel layout              : L R C LFE Ls Rs
    Sampling rate               : 48.0 kHz
    Frame rate                  : 31.250 FPS (1536 SPF)
    Compression mode            : Lossy
    Stream size                 : 567 MiB (2%)
    Title                       : Español Latino [CinemaniaHDD]
    Language                    : Spanish
    Service kind                : Complete Main
    Default                     : Yes
    Forced                      : Yes

    Audio #2
    ID                          : 3
    ID in the original source m : 4353 (0x1101)
    Format                      : DTS XLL
    Format/Info                 : Digital Theater Systems
    Commercial name             : DTS-HD Master Audio
    Codec ID                    : A_DTS
    Duration                    : 2 h 3 min
    Bit rate mode               : Variable
    Bit rate                    : 3 636 kb/s
    Channel(s)                  : 6 channels
    Channel layout              : C L R Ls Rs LFE
    Sampling rate               : 48.0 kHz
    Frame rate                  : 93.750 FPS (512 SPF)
    Bit depth                   : 24 bits
    Compression mode            : Lossless
    Stream size                 : 3.14 GiB (11%)
    Title                       : Ingles [CinemaniaHDD]
    Language                    : English
    Default                     : No
    Forced                      : No
    Original source medium      : Blu-ray

    Text #1
    ID                          : 4
    Format                      : UTF-8
    Codec ID                    : S_TEXT/UTF8
    Codec ID/Info               : UTF-8 Plain Text
    Duration                    : 2 h 1 min
    Bit rate                    : 1 b/s
    Count of elements           : 61
    Stream size                 : 1.42 KiB (0%)
    Title                       : Forzados-SRT [CinemaniaHDD]
    Language                    : Spanish
    Default                     : Yes
    Forced                      : Yes

    Text #2
    ID                          : 5
    Format                      : UTF-8
    Codec ID                    : S_TEXT/UTF8
    Codec ID/Info               : UTF-8 Plain Text
    Duration                    : 2 h 2 min
    Bit rate                    : 48 b/s
    Count of elements           : 1379
    Stream size                 : 43.3 KiB (0%)
    Title                       : Español-SRT [CinemaniaHDD]
    Language                    : Spanish
    Default                     : No
    Forced                      : No

    Text #3
    ID                          : 6
    Format                      : UTF-8
    Codec ID                    : S_TEXT/UTF8
    Codec ID/Info               : UTF-8 Plain Text
    Duration                    : 1 h 57 min
    Bit rate                    : 52 b/s
    Count of elements           : 1371
    Stream size                 : 45.3 KiB (0%)
    Title                       : Ingles-SRT [CinemaniaHDD]
    Language                    : English
    Default                     : No
    Forced                      : No

    Menu
    00:00:00.000                : Chapter 01
    00:06:55.540                : Chapter 02
    00:18:21.058                : Chapter 03
    00:30:30.995                : Chapter 04
    00:39:43.589                : Chapter 05
    00:50:10.507                : Chapter 06
    01:00:45.391                : Chapter 07
    01:11:57.730                : Chapter 08
    01:21:56.912                : Chapter 09
    01:34:29.163                : Chapter 10
    01:49:21.930                : Chapter 11
    01:58:24.847                : Chapter 12

  • Peso: 28.8 GiB

Sinopsis

Descargar SAS: El ascenso del Cisne Negro (2021) REMUX 1080p Latino. Un soldado de SAS fuera de servicio, Tom Buckingham, debe frustrar un ataque terrorista en un tren que atraviesa el Túnel del Canal. A medida que la acción se intensifica en el tren, ocurren eventos en los pasillos del poder que pueden marcar la diferencia en cuanto a que Buckingham y los pasajeros civiles salgan vivos del túnel.

Ficha técnica

  • Titulo original: SAS: Red Notice
  • Fecha de lanzamiento: 11-08-2021 (Hungary, Netherlands, Switzerland, United Kingdom)
  • Director: Magnus Martens
  • Género: Acción, Remux, Suspenso

Video trailer de la película

Enlaces de descarga

Rip de Bluray

Descargar SAS: El ascenso del Cisne Negro (2021) REMUX 1080p Latino




Aportes de DPeliculasHDmega la pass es:dpeliculashdmega.org Aportes de CinemaniaHD la pass es:cinemaniahdd.com
Guardado en : Acción , Remux , Suspenso

Películas relacionadas

  • Mi amigo el dragón (2016) REMUX 1080p Latino

    Mi amigo el dragón (2016) REMUX 1080p Latino

    2016
    Mi amigo el dragón (2016) REMUX 1080p Latino

    1h 43m 2016

    Descargar Mi amigo el dragón (2016) REMUX 1080p Latino. Durante años el Sr. Meacham, un viejo tallador...

    Director: Joe Nolan

    Género: Aventura

    Actores: William J. Rawbone

  • El discurso del Rey (2010) REMUX 1080p Latino

    El discurso del Rey (2010) REMUX 1080p Latino

    2010
    El discurso del Rey (2010) REMUX 1080p Latino

    1h 58m 2010

    Descargar El discurso del Rey (2010) REMUX 1080p Latino. El duque de York se convirtió en rey de Gran...

    Director: Tom Hooper

    Género: Drama

    Actores: Tony Earnshaw

  • Lucy (2014) REMUX 4K HDR Latino – CMHDD

    Lucy (2014) REMUX 4K HDR Latino – CMHDD

    2014
    Lucy (2014) REMUX 4K HDR Latino – CMHDD

    1h 30m 2014

    Lucy, una joven obligada a ejercer de mula de una nueva y potente droga, adquiere de repente enormes...

    Director: Luc Besson

    Género: Acción

    Actores: Wolfgang Pissors

descargar SAS: El ascenso del Cisne Negro (2021) REMUX 1080p Latino Full 1080p 1080p gratis, SAS: El ascenso del Cisne Negro (2021) REMUX 1080p Latino Full 1080p mega 1 link, SAS: El ascenso del Cisne Negro (2021) REMUX 1080p Latino Full 1080p pelicula completa, descargar SAS: El ascenso del Cisne Negro (2021) REMUX 1080p Latino Full 1080p gratis en mega.

SAS: El ascenso del Cisne Negro (2021) REMUX 1080p Latino pelicula full hd, SAS: El ascenso del Cisne Negro (2021) REMUX 1080p Latino mega latino, SAS: El ascenso del Cisne Negro (2021) REMUX 1080p Latino 4k latino, SAS: El ascenso del Cisne Negro (2021) REMUX 1080p Latino pelicula completa, SAS: El ascenso del Cisne Negro (2021) REMUX 1080p Latino descargar gratis, descargar SAS: El ascenso del Cisne Negro (2021) REMUX 1080p Latino pelicula latino, SAS: El ascenso del Cisne Negro (2021) REMUX 1080p Latino 1 link mega, SAS: El ascenso del Cisne Negro (2021) REMUX 1080p Latino 1 link google drive, SAS: El ascenso del Cisne Negro (2021) REMUX 1080p Latino hd 1080p latino.
Comentarios 0