×

¿Problemas para descargar con Mozilla, EDGE? Deshabilita la opción "Abrir vinculos en una pestaña nueva" tal como lo muestra ésta imagen.

SAS: El ascenso del Cisne Negro (2021) PLACEBO Full HD 1080p Latino

379 vistas

Información de SAS: El ascenso del Cisne Negro (2021) PLACEBO Full HD 1080p Latino

Datos de la película

  • Calidad: Full 1080p
  • Audio: Español Latino AC3 5.1 Netflix - Ingles DTS 5.1 BLURAY
  • Subtitulos: Español Latino SRT- FORZADOS SRT
  • Resolución: 1920x1080p
  • Formato: MKV
  • Codec: H.264
  • Encoder: Melkor
  • Mediainfo: Clic para Mostrar Datos Ver
  • SAS El Ascenso Del Cisne Negro (2021) PLACEBO 1080p Latino.mkv
    Format                      : Matroska
    Format version              : Version 4
    File size                   : 5.23 GiB
    Duration                    : 2 h 3 min
    Overall bit rate            : 6 044 kb/s
    Movie name                  : SAS - Red Notice (2021) CinemaniaHDD.Net
    Encoded date                : UTC 2021-08-28 06:25:48
    Writing application         : mkvmerge v56.1.0 ('My Friend') 64-bit
    Writing library             : libebml v1.4.2 + libmatroska v1.6.4
    Attachments                 : CINEMANIAHD.png

    Video
    ID                          : 1
    Format                      : AVC
    Format/Info                 : Advanced Video Codec
    Format profile              : High@L4.1
    Format settings             : CABAC / 4 Ref Frames
    Format settings, CABAC      : Yes
    Format settings, Reference  : 4 frames
    Codec ID                    : V_MPEG4/ISO/AVC
    Duration                    : 2 h 3 min
    Bit rate                    : 3 892 kb/s
    Width                       : 1 920 pixels
    Height                      : 1 080 pixels
    Display aspect ratio        : 16:9
    Frame rate mode             : Constant
    Frame rate                  : 23.976 (24000/1001) FPS
    Color space                 : YUV
    Chroma subsampling          : 4:2:0
    Bit depth                   : 8 bits
    Scan type                   : Progressive
    Bits/(Pixel*Frame)          : 0.078
    Stream size                 : 3.36 GiB (64%)
    Title                       : Full HD1080p [CinemaniaHDD]
    Writing library             : x264 core 163 r3059 b684ebe0
    Encoding settings           : cabac=1 / ref=4 / deblock=1:0:0 / analyse=0x3:0x133 / me=tesa / subme=11 / psy=1 / psy_rd=1.00:0.00 / mixed_ref=1 / me_range=24 / chroma_me=1 / trellis=2 / 8x8dct=1 / cqm=0 / deadzone=21,11 / fast_pskip=0 / chroma_qp_offset=-2 / threads=24 / lookahead_threads=6 / sliced_threads=0 / nr=0 / decimate=1 / interlaced=0 / bluray_compat=0 / constrained_intra=0 / bframes=16 / b_pyramid=2 / b_adapt=2 / b_bias=0 / direct=3 / weightb=1 / open_gop=0 / weightp=2 / keyint=240 / keyint_min=24 / scenecut=40 / intra_refresh=0 / rc_lookahead=60 / rc=crf / mbtree=1 / crf=20.0 / qcomp=0.60 / qpmin=0 / qpmax=69 / qpstep=4 / vbv_maxrate=62500 / vbv_bufsize=78125 / crf_max=0.0 / nal_hrd=none / filler=0 / ip_ratio=1.40 / aq=1:1.00
    Default                     : Yes
    Forced                      : Yes
    Color range                 : Limited
    Color primaries             : BT.709
    Transfer characteristics    : BT.709
    Matrix coefficients         : BT.709

    Audio #1
    ID                          : 2
    Format                      : AC-3
    Format/Info                 : Audio Coding 3
    Commercial name             : Dolby Digital
    Codec ID                    : A_AC3
    Duration                    : 2 h 3 min
    Bit rate mode               : Constant
    Bit rate                    : 640 kb/s
    Channel(s)                  : 6 channels
    Channel layout              : L R C LFE Ls Rs
    Sampling rate               : 48.0 kHz
    Frame rate                  : 31.250 FPS (1536 SPF)
    Compression mode            : Lossy
    Stream size                 : 567 MiB (11%)
    Title                       : Español Latino [CinemaniaHDD]
    Language                    : Spanish
    Service kind                : Complete Main
    Default                     : Yes
    Forced                      : Yes

    Audio #2
    ID                          : 3
    Format                      : DTS
    Format/Info                 : Digital Theater Systems
    Codec ID                    : A_DTS
    Duration                    : 2 h 3 min
    Bit rate mode               : Constant
    Bit rate                    : 1 509 kb/s
    Channel(s)                  : 6 channels
    Channel layout              : C L R Ls Rs LFE
    Sampling rate               : 48.0 kHz
    Frame rate                  : 93.750 FPS (512 SPF)
    Bit depth                   : 24 bits
    Compression mode            : Lossy
    Stream size                 : 1.30 GiB (25%)
    Title                       : Ingles [CinemaniaHDD]
    Language                    : English
    Default                     : No
    Forced                      : No

    Text #1
    ID                          : 4
    Format                      : UTF-8
    Codec ID                    : S_TEXT/UTF8
    Codec ID/Info               : UTF-8 Plain Text
    Duration                    : 2 h 1 min
    Bit rate                    : 1 b/s
    Count of elements           : 61
    Stream size                 : 1.42 KiB (0%)
    Title                       : Forzados-SRT [CinemaniaHDD]
    Language                    : Spanish
    Default                     : Yes
    Forced                      : Yes

    Text #2
    ID                          : 5
    Format                      : UTF-8
    Codec ID                    : S_TEXT/UTF8
    Codec ID/Info               : UTF-8 Plain Text
    Duration                    : 2 h 2 min
    Bit rate                    : 48 b/s
    Count of elements           : 1379
    Stream size                 : 43.3 KiB (0%)
    Title                       : Español-SRT [CinemaniaHDD]
    Language                    : Spanish
    Default                     : No
    Forced                      : No

    Text #3
    ID                          : 6
    Format                      : UTF-8
    Codec ID                    : S_TEXT/UTF8
    Codec ID/Info               : UTF-8 Plain Text
    Duration                    : 1 h 57 min
    Bit rate                    : 52 b/s
    Count of elements           : 1371
    Stream size                 : 45.3 KiB (0%)
    Title                       : Ingles-SRT [CinemaniaHDD]
    Language                    : English
    Default                     : No
    Forced                      : No

    Menu
    00:00:00.000                : Chapter 01
    00:06:55.540                : Chapter 02
    00:18:21.058                : Chapter 03
    00:30:30.995                : Chapter 04
    00:39:43.589                : Chapter 05
    00:50:10.507                : Chapter 06
    01:00:45.391                : Chapter 07
    01:11:57.730                : Chapter 08
    01:21:56.912                : Chapter 09
    01:34:29.163                : Chapter 10
    01:49:21.930                : Chapter 11
    01:58:24.847                : Chapter 12

  • Peso: 5.23 GiB

Sinopsis

Descargar SAS: El ascenso del Cisne Negro (2021) PLACEBO Full HD 1080p Latino. Un soldado de SAS fuera de servicio, Tom Buckingham, debe frustrar un ataque terrorista en un tren que atraviesa el Túnel del Canal. A medida que la acción se intensifica en el tren, ocurren eventos en los pasillos del poder que pueden marcar la diferencia en cuanto a que Buckingham y los pasajeros civiles salgan vivos del túnel.

Ficha técnica

Video trailer de la película

Enlaces de descarga

Rip de Bluray

Descargar SAS: El ascenso del Cisne Negro (2021) PLACEBO Full HD 1080p Latino




Aportes de DPeliculasHDmega la pass es:dpeliculashdmega.org Aportes de CinemaniaHD la pass es:cinemaniahdd.com Aportes recientes:cinemaniahdd.net

Películas relacionadas

  • Naturaleza Humana (2022) REMUX 1080p Latino

    Naturaleza Humana (2022) REMUX 1080p Latino

    2022
    Naturaleza Humana (2022) REMUX 1080p Latino

    1h 31m 2022

    Descargar Naturaleza Humana (2022) REMUX 1080p Latino. Una historia sobre la mayoría de edad contada...

    Director: Louie Gibson

    Género: Drama

    Actores: Tim Heidecker

  • Wonka (2023) Full HD 1080p Latino-CMHDD

    Wonka (2023) Full HD 1080p Latino-CMHDD

    2023
    Wonka (2023) Full HD 1080p Latino-CMHDD

    1h 57m 2023

    Descargar Wonka (2023) Full HD 1080p Latino-CMHDD. Basada en el personaje que protagoniza "Charlie y...

    Director: Zoe Morgan

    Género: Comedia

    Actores: Tracy Ifeachor

  • Next Goal Wins (2023) Full HD 1080p Latino-CMHDD

    Next Goal Wins (2023) Full HD 1080p Latino-CMHDD

    2023
    Next Goal Wins (2023) Full HD 1080p Latino-CMHDD

    1h 44m 2023

    Descargar Next Goal Wins (2023) Full HD 1080p Latino-CMHDD. Drama deportivo que cuenta la historia del...

    Director: Zack Earl Edwards

    Género: Comedia

    Actores: William Chun

  • Sin Aire (The Dive) (2023) AMZN WEB-DL 1080p Latino

    Sin Aire (The Dive) (2023) AMZN WEB-DL 1080p Latino

    2023
    Sin Aire (The Dive) (2023) AMZN WEB-DL 1080p Latino

    1h 31m 2023

    Dos hermanas van a bucear a un hermoso y remoto lugar. Una de las hermanas es golpeada por una roca,...

    Director: Samantha Cassar Ellis

    Género: Suspenso

    Actores: Stella Uhrig

descargar SAS: El ascenso del Cisne Negro (2021) PLACEBO Full HD 1080p Latino Full 1080p 1080p gratis, SAS: El ascenso del Cisne Negro (2021) PLACEBO Full HD 1080p Latino Full 1080p mega 1 link, SAS: El ascenso del Cisne Negro (2021) PLACEBO Full HD 1080p Latino Full 1080p pelicula completa, descargar SAS: El ascenso del Cisne Negro (2021) PLACEBO Full HD 1080p Latino Full 1080p gratis en mega.

SAS: El ascenso del Cisne Negro (2021) PLACEBO Full HD 1080p Latino pelicula full hd, SAS: El ascenso del Cisne Negro (2021) PLACEBO Full HD 1080p Latino mega latino, SAS: El ascenso del Cisne Negro (2021) PLACEBO Full HD 1080p Latino 4k latino, SAS: El ascenso del Cisne Negro (2021) PLACEBO Full HD 1080p Latino pelicula completa, SAS: El ascenso del Cisne Negro (2021) PLACEBO Full HD 1080p Latino descargar gratis, descargar SAS: El ascenso del Cisne Negro (2021) PLACEBO Full HD 1080p Latino pelicula latino, SAS: El ascenso del Cisne Negro (2021) PLACEBO Full HD 1080p Latino 1 link mega, SAS: El ascenso del Cisne Negro (2021) PLACEBO Full HD 1080p Latino 1 link google drive, SAS: El ascenso del Cisne Negro (2021) PLACEBO Full HD 1080p Latino hd 1080p latino.
Comentarios 1