×

¿Problemas para descargar con Mozilla, EDGE? Deshabilita la opción "Abrir vinculos en una pestaña nueva" tal como lo muestra ésta imagen.

Santa Evita (2022) Temporada 1 WEB-DL 1080p Latino

321 vistas

Información de Santa Evita (2022) Temporada 1 WEB-DL 1080p Latino

Datos de la película

  • Calidad: WEBDL
  • Audio: Se especifica abajo de la Sinopsis
  • Subtitulos: Español Latino SRT - Ingles SRT
  • Resolución: 1920x1080p
  • Formato: MKV
  • Codec: H.264
  • Encoder: CinemaniaHD
  • Mediainfo: Clic para Mostrar Datos Ver
  • Santa Evita S01E01 (2022) WebDL 1080p Latino.mkv
    Format                      : Matroska
    Format version              : Version 4
    File size                   : 1.18 GiB
    Duration                    : 45 min 14 s
    Overall bit rate            : 3 731 kb/s
    Movie name                  : Santa Evita S01E01 CinemaniaHDD.Net
    Encoded date                : UTC 2022-07-27 04:54:23
    Writing application         : mkvmerge v56.1.0 ('My Friend') 64-bit
    Writing library             : libebml v1.4.2 + libmatroska v1.6.4
    Attachments                 : CINEMANIAHD.png

    Video
    ID                          : 1
    Format                      : AVC
    Format/Info                 : Advanced Video Codec
    Format profile              : High@L4
    Format settings             : CABAC / 4 Ref Frames
    Format settings, CABAC      : Yes
    Format settings, Reference  : 4 frames
    Codec ID                    : V_MPEG4/ISO/AVC
    Duration                    : 45 min 13 s
    Bit rate                    : 3 473 kb/s
    Width                       : 1 920 pixels
    Height                      : 1 080 pixels
    Display aspect ratio        : 16:9
    Frame rate mode             : Constant
    Frame rate                  : 23.976 (24000/1001) FPS
    Color space                 : YUV
    Chroma subsampling          : 4:2:0
    Bit depth                   : 8 bits
    Scan type                   : Progressive
    Bits/(Pixel*Frame)          : 0.070
    Stream size                 : 1.10 GiB (93%)
    Title                       : WEB HD1080p [CinemaniaHDD]
    Language                    : Spanish
    Default                     : Yes
    Forced                      : Yes

    Audio
    ID                          : 2
    Format                      : E-AC-3
    Format/Info                 : Enhanced AC-3
    Commercial name             : Dolby Digital Plus
    Codec ID                    : A_EAC3
    Duration                    : 45 min 14 s
    Bit rate mode               : Constant
    Bit rate                    : 256 kb/s
    Channel(s)                  : 6 channels
    Channel layout              : L R C LFE Ls Rs
    Sampling rate               : 48.0 kHz
    Frame rate                  : 31.250 FPS (1536 SPF)
    Compression mode            : Lossy
    Stream size                 : 82.8 MiB (7%)
    Title                       : Español Latino [CinemaniaHDD]
    Language                    : Spanish
    Service kind                : Complete Main
    Default                     : Yes
    Forced                      : Yes

    Text #1
    ID                          : 3
    Format                      : UTF-8
    Codec ID                    : S_TEXT/UTF8
    Codec ID/Info               : UTF-8 Plain Text
    Duration                    : 43 min 13 s
    Bit rate                    : 62 b/s
    Count of elements           : 598
    Stream size                 : 19.6 KiB (0%)
    Title                       : Español-SRT [CinemaniaHDD]
    Language                    : Spanish
    Default                     : No
    Forced                      : No

    Text #2
    ID                          : 4
    Format                      : UTF-8
    Codec ID                    : S_TEXT/UTF8
    Codec ID/Info               : UTF-8 Plain Text
    Duration                    : 42 min 38 s
    Bit rate                    : 60 b/s
    Count of elements           : 598
    Stream size                 : 18.9 KiB (0%)
    Title                       : Ingles-SRT [CinemaniaHDD]
    Language                    : English
    Default                     : No
    Forced                      : No

  • Peso: 1.20GiB Aprox C/U. -- 8.13 GiB -- 7 Chapters

Sinopsis

Descargar Santa Evita (2022) Temporada 1 WEB-DL 1080p Latino. Esta es la historia de Eva Perón después de morir, cuyo cuerpo embalsamado viajó por más de dos décadas de forma tan accidentada como sus 33 años de vida. Evita muere en 1952, pero en 1955 los militares derrocan al presidente Perón y ocultan el cuerpo durante varios años por motivos políticos. Esta historia es la de ese cadáver errante y su leyenda.

Español Latino EAC3 5.1 Web

Ficha técnica

Video trailer de la película

Enlaces de descarga

Rip de Bluray

Descargar Santa Evita (2022) Temporada 1 WEB-DL 1080p Latino




Aportes de DPeliculasHDmega la pass es:dpeliculashdmega.org Aportes de CinemaniaHD la pass es:cinemaniahdd.com
Guardado en : Drama , Series

Películas relacionadas

Santa Evita (2022) Temporada 1 WEB-DL 1080p Latino pelicula full hd, Santa Evita (2022) Temporada 1 WEB-DL 1080p Latino mega latino, Santa Evita (2022) Temporada 1 WEB-DL 1080p Latino 4k latino, Santa Evita (2022) Temporada 1 WEB-DL 1080p Latino pelicula completa, Santa Evita (2022) Temporada 1 WEB-DL 1080p Latino descargar gratis, descargar Santa Evita (2022) Temporada 1 WEB-DL 1080p Latino pelicula latino, Santa Evita (2022) Temporada 1 WEB-DL 1080p Latino 1 link mega, Santa Evita (2022) Temporada 1 WEB-DL 1080p Latino 1 link google drive, Santa Evita (2022) Temporada 1 WEB-DL 1080p Latino hd 1080p latino.
Comentarios 0