Sangre y arena (1941) Full HD 1080p Latino – CMHDD

1.147 vistas
1 estrella2 estrellas3 estrellas4 estrellas5 estrellas (2 votos, promedio: 3,00 de 5)
Cargando...

Información de Sangre y arena (1941) Full HD 1080p Latino – CMHDD

Datos de la película

  • Calidad: Full 1080p
  • Audio: Se especifica abajo de la Sinopsis
  • Subtitulos: Español Latino SRT- FORZADOS SRT
  • Resolución: 1920x1080p
  • Formato: MKV
  • Codec: H.264
  • Encoder: Dracarys
  • Mediainfo: Clic para Mostrar Datos Ver
  • Format                                   : Matroska
    Format version                           : Version 4 / Version 2
    File size                                : 4.60 GiB
    Duration                                 : 2 h 5 min
    Overall bit rate                         : 5 264 kb/s
    Movie name                               : CinemaniaHDD.net
    Encoded date                             : UTC 2018-08-29 22:57:48 / UTC 2018-08-17T03:56:07Z
    Writing application                      : mkvmerge v15.0.0 ('Duel with the Devil') 64-bit
    Writing library                          : libebml v1.3.5 + libmatroska v1.4.5 / Lavf57.7.2

    Video
    ID                                       : 1
    Format                                   : AVC
    Format/Info                              : Advanced Video Codec
    Format profile                           : High@L4.1
    Format settings                          : CABAC / 4 Ref Frames
    Format settings, CABAC                   : Yes
    Format settings, RefFrames               : 4 frames
    Codec ID                                 : V_MPEG4/ISO/AVC
    Duration                                 : 2 h 5 min
    Bit rate                                 : 4 200 kb/s
    Width                                    : 1 920 pixels
    Height                                   : 1 080 pixels
    Display aspect ratio                     : 16:9
    Frame rate mode                          : Constant
    Frame rate                               : 23.976 (24000/1001) FPS
    Color space                              : YUV
    Chroma subsampling                       : 4:2:0
    Bit depth                                : 8 bits
    Scan type                                : Progressive
    Bits/(Pixel*Frame)                       : 0.084
    Stream size                              : 3.67 GiB (80%)
    Title                                    : Sangre y arena (1941) Full 1080p Latino
    Writing library                          : x264 core 148 r2708 86b7198
    Encoding settings                        : cabac=1 / ref=4 / deblock=1:0:0 / analyse=0x3:0x133 / me=esa / subme=10 / psy=1 / psy_rd=1.00:0.00 / mixed_ref=1 / me_range=24 / chroma_me=1 / trellis=2 / 8x8dct=1 / cqm=0 / deadzone=21,11 / fast_pskip=1 / chroma_qp_offset=-2 / threads=34 / lookahead_threads=5 / sliced_threads=0 / nr=0 / decimate=1 / interlaced=0 / bluray_compat=0 / constrained_intra=0 / bframes=8 / b_pyramid=2 / b_adapt=2 / b_bias=0 / direct=3 / weightb=1 / open_gop=0 / weightp=2 / keyint=240 / keyint_min=24 / scenecut=40 / intra_refresh=0 / rc_lookahead=60 / rc=crf / mbtree=1 / crf=20.0 / qcomp=0.60 / qpmin=0 / qpmax=69 / qpstep=4 / vbv_maxrate=62500 / vbv_bufsize=78125 / crf_max=0.0 / nal_hrd=none / filler=0 / ip_ratio=1.40 / aq=1:1.00
    Language                                 : English
    Default                                  : Yes
    Forced                                   : No
    Color range                              : Limited
    Color primaries                          : BT.709
    Transfer characteristics                 : BT.709
    Matrix coefficients                      : BT.709
    Statistics Tags Issue                    : mkvmerge v15.0.0 ('Duel with the Devil') 64-bit 2018-08-29 22:57:48 / mkvmerge v15.0.0 ('Duel with the Devil') 64-bit 2018-08-29 22:57:48 / UTC 2018-08-17T03:56:07Z
    FromStats_BitRate                        : 4284122
    FromStats_Duration                       : 02:05:13.131000000
    FromStats_FrameCount                     : 180135
    FromStats_StreamSize                     : 4023396634

    Audio #1
    ID                                       : 2
    Format                                   : AC-3
    Format/Info                              : Audio Coding 3
    Format settings, Endianness              : Big
    Codec ID                                 : A_AC3
    Duration                                 : 2 h 5 min
    Bit rate mode                            : Constant
    Bit rate                                 : 192 kb/s
    Channel(s)                               : 1 channel
    Channel positions                        : Front: C
    Sampling rate                            : 48.0 kHz
    Frame rate                               : 31.250 FPS (1536 SPF)
    Bit depth                                : 16 bits
    Compression mode                         : Lossy
    Stream size                              : 172 MiB (4%)
    Language                                 : Spanish
    Service kind                             : Complete Main
    Default                                  : Yes
    Forced                                   : No
    Statistics Tags Issue                    : mkvmerge v15.0.0 ('Duel with the Devil') 64-bit 2018-08-29 22:57:48 / mkvmerge v15.0.0 ('Duel with the Devil') 64-bit 2018-08-29 22:57:48 / UTC 2018-08-17T03:56:07Z
    FromStats_BitRate                        : 192000
    FromStats_Duration                       : 02:05:13.184000000
    FromStats_FrameCount                     : 234787
    FromStats_StreamSize                     : 180316416

    Audio #2
    ID                                       : 3
    Format                                   : DTS
    Format/Info                              : Digital Theater Systems
    Mode                                     : 16
    Format settings, Endianness              : Big
    Codec ID                                 : A_DTS
    Duration                                 : 2 h 5 min
    Bit rate mode                            : Constant
    Bit rate                                 : 768 kb/s
    Channel(s)                               : 1 channel
    Channel positions                        : Front: C
    Sampling rate                            : 48.0 kHz
    Frame rate                               : 93.750 FPS (512 SPF)
    Bit depth                                : 24 bits
    Compression mode                         : Lossy
    Stream size                              : 688 MiB (15%)
    Language                                 : English
    Default                                  : No
    Forced                                   : No
    Statistics Tags Issue                    : mkvmerge v15.0.0 ('Duel with the Devil') 64-bit 2018-08-29 22:57:48 / mkvmerge v15.0.0 ('Duel with the Devil') 64-bit 2018-08-29 22:57:48 / UTC 2018-08-17T03:56:07Z
    FromStats_BitRate                        : 767999
    FromStats_Duration                       : 02:05:13.163000000
    FromStats_FrameCount                     : 704359
    FromStats_StreamSize                     : 721263616

    Text #1
    ID                                       : 4
    Format                                   : PGS
    Muxing mode                              : zlib
    Codec ID                                 : S_HDMV/PGS
    Codec ID/Info                            : Picture based subtitle format used on BDs/HD-DVDs
    Language                                 : English
    Default                                  : No
    Forced                                   : No
    Statistics Tags Issue                    : mkvmerge v15.0.0 ('Duel with the Devil') 64-bit 2018-08-29 22:57:48 / mkvmerge v15.0.0 ('Duel with the Devil') 64-bit 2018-08-29 22:57:48 / UTC 2018-08-17T03:56:07Z
    FromStats_BitRate                        : 33420
    FromStats_Duration                       : 02:02:04.650000000
    FromStats_FrameCount                     : 2676
    FromStats_StreamSize                     : 30599490

    Text #2
    ID                                       : 5
    Format                                   : PGS
    Muxing mode                              : zlib
    Codec ID                                 : S_HDMV/PGS
    Codec ID/Info                            : Picture based subtitle format used on BDs/HD-DVDs
    Language                                 : Spanish
    Default                                  : No
    Forced                                   : No
    Statistics Tags Issue                    : mkvmerge v15.0.0 ('Duel with the Devil') 64-bit 2018-08-29 22:57:48 / mkvmerge v15.0.0 ('Duel with the Devil') 64-bit 2018-08-29 22:57:48 / UTC 2018-08-17T03:56:07Z
    FromStats_BitRate                        : 29441
    FromStats_Duration                       : 02:04:02.101000000
    FromStats_FrameCount                     : 2132
    FromStats_StreamSize                     : 27388229

    Menu
    00:00:00.000                             : :Chapter 1
    00:01:25.460                             : :Chapter 2
    00:06:09.786                             : :Chapter 3
    00:14:53.267                             : :Chapter 4
    00:22:06.617                             : :Chapter 5
    00:27:27.312                             : :Chapter 6
    00:33:36.056                             : :Chapter 7
    00:37:04.389                             : :Chapter 8
    00:41:52.176                             : :Chapter 9
    00:54:06.076                             : :Chapter 10
    01:04:07.010                             : :Chapter 11
    01:11:24.197                             : :Chapter 12
    01:18:12.396                             : :Chapter 13
    01:24:09.294                             : :Chapter 14
    01:30:05.817                             : :Chapter 15
    01:35:57.460                             : :Chapter 16
    01:42:47.828                             : :Chapter 17
    01:51:17.212                             : :Chapter 18
    01:54:28.570                             : :Chapter 19
    02:00:19.045                             : :Chapter 20

  • Peso: 4.60 GiB

Sinopsis

Después de muchas dificultades, Juan Gallardo (Tyrone Power) se convierte en la primera figura del toreo. A continuación se casa con Carmen (Darnell), su novia de toda la vida. Pero, cuando todo parecía ir bien, Juan conoce a Sol (Hayworth), una joven, bella y frivola aristócrata con la que mantiene una apasionada relación. A partir de entonces comenzará su declive

 

Latino AC3 1.0 Bluray  –  Ingles DTS 1.0 Bluray

Ficha técnica

Video trailer de la película

Enlaces de descarga

Rip de Bluray

Descargar Sangre y arena (1941) Full HD 1080p Latino – CMHDD




Aportes de DPeliculasHDmega la pass es:dpeliculashdmega.org Aportes de CinemaniaHD la pass es:cinemaniahdd.com

Películas relacionadas

Comentarios 4
  • Adolfo - 03 agosto, 2020

    Holas buenas noches, podrían resubir los link, mi mama me tiene vuelto loco por esta película porfavor.

    • Dracarys - 03 agosto, 2020

      resubido

  • Mariano - 18 septiembre, 2018

    Qué gran película! Rita Hayworth lo mejor de este film. Muchas gracias Cine Mania

  • TKBear - 30 agosto, 2018

    Me la llevo, muchas gracias, directo para mi padre, en espera suban más de la fiesta brava….