×

¿Problemas para descargar con Mozilla, EDGE? Deshabilita la opción "Abrir vinculos en una pestaña nueva" tal como lo muestra ésta imagen.

Sangre (2020) AMZN WEB-DL 1080p Latino

38 vistas

Información de Sangre (2020) AMZN WEB-DL 1080p Latino

Datos de la película

  • Calidad: WEBDL
  • Audio: Español Latino AC3 5.1
  • Subtitulos: No
  • Resolución: 1920x800p
  • Formato: MKV
  • Codec: H.264
  • Encoder: Melkor
  • Mediainfo: Clic para Mostrar Datos Ver
  • Sangre (2020) AMZN WEB 1080p Latino.mkv
    Format                      : Matroska
    Format version              : Version 4
    File size                   : 6.22 GiB
    Duration                    : 1 h 38 min
    Overall bit rate mode       : Constant
    Overall bit rate            : 9 054 kb/s
    Movie name                  : Sangre (2020) CinemaniaHDD.Net
    Encoded date                : UTC 2024-04-02 04:31:40
    Writing application         : mkvmerge v56.1.0 ('My Friend') 64-bit
    Writing library             : libebml v1.4.2 + libmatroska v1.6.4
    Attachments                 : CINEMANIAHD.png

    Video
    ID                          : 1
    Format                      : AVC
    Format/Info                 : Advanced Video Codec
    Format profile              : High@L4
    Format settings             : CABAC / 4 Ref Frames
    Format settings, CABAC      : Yes
    Format settings, Reference  : 4 frames
    Codec ID                    : V_MPEG4/ISO/AVC
    Duration                    : 1 h 38 min
    Bit rate mode               : Constant
    Bit rate                    : 7 771 kb/s
    Nominal bit rate            : 10 000 kb/s
    Width                       : 1 920 pixels
    Height                      : 800 pixels
    Display aspect ratio        : 2.40:1
    Frame rate mode             : Constant
    Frame rate                  : 25.000 FPS
    Color space                 : YUV
    Chroma subsampling          : 4:2:0
    Bit depth                   : 8 bits
    Scan type                   : Progressive
    Bits/(Pixel*Frame)          : 0.202
    Stream size                 : 5.34 GiB (86%)
    Title                       : Web HD1080p [CinemaniaHDD]
    Default                     : Yes
    Forced                      : Yes
    Color range                 : Limited
    Color primaries             : BT.709
    Transfer characteristics    : BT.709
    Matrix coefficients         : BT.709

    Audio #1
    ID                          : 2
    Format                      : AC-3
    Format/Info                 : Audio Coding 3
    Commercial name             : Dolby Digital
    Codec ID                    : A_AC3
    Duration                    : 1 h 38 min
    Bit rate mode               : Constant
    Bit rate                    : 640 kb/s
    Channel(s)                  : 6 channels
    Channel layout              : L R C LFE Ls Rs
    Sampling rate               : 48.0 kHz
    Frame rate                  : 31.250 FPS (1536 SPF)
    Compression mode            : Lossy
    Stream size                 : 451 MiB (7%)
    Title                       : Español Latino AC3 [CinemaniaHDD]
    Language                    : Spanish
    Service kind                : Complete Main
    Default                     : Yes
    Forced                      : Yes

    Audio #2
    ID                          : 3
    Format                      : E-AC-3
    Format/Info                 : Enhanced AC-3
    Commercial name             : Dolby Digital Plus
    Codec ID                    : A_EAC3
    Duration                    : 1 h 38 min
    Bit rate mode               : Constant
    Bit rate                    : 640 kb/s
    Channel(s)                  : 6 channels
    Channel layout              : L R C LFE Ls Rs
    Sampling rate               : 48.0 kHz
    Frame rate                  : 31.250 FPS (1536 SPF)
    Compression mode            : Lossy
    Stream size                 : 451 MiB (7%)
    Title                       : Español Latino EAC3 [CinemaniaHDD]
    Language                    : Spanish
    Service kind                : Complete Main
    Default                     : No
    Forced                      : Yes

  • Peso: 6.22 GiB

Sinopsis

Descargar Sangre (2020) AMZN WEB-DL 1080p Latino. Fernando, un marino mercante, llega a la ciudad de Rosario para trabajar en un petrolero. Pero su mudanza parece ocultar otros motivos.

Ficha técnica

Video trailer de la película

Enlaces de descarga

Rip de Bluray

Descargar Sangre (2020) AMZN WEB-DL 1080p Latino




Aportes de DPeliculasHDmega la pass es:dpeliculashdmega.org Aportes de CinemaniaHD la pass es:cinemaniahdd.com Aportes recientes:cinemaniahdd.net
Guardado en : Drama

Películas relacionadas

descargar Sangre (2020) AMZN WEB-DL 1080p Latino WEBDL 1080p gratis, Sangre (2020) AMZN WEB-DL 1080p Latino WEBDL mega 1 link, Sangre (2020) AMZN WEB-DL 1080p Latino WEBDL pelicula completa, descargar Sangre (2020) AMZN WEB-DL 1080p Latino WEBDL gratis en mega.

Sangre (2020) AMZN WEB-DL 1080p Latino pelicula full hd, Sangre (2020) AMZN WEB-DL 1080p Latino mega latino, Sangre (2020) AMZN WEB-DL 1080p Latino 4k latino, Sangre (2020) AMZN WEB-DL 1080p Latino pelicula completa, Sangre (2020) AMZN WEB-DL 1080p Latino descargar gratis, descargar Sangre (2020) AMZN WEB-DL 1080p Latino pelicula latino, Sangre (2020) AMZN WEB-DL 1080p Latino 1 link mega, Sangre (2020) AMZN WEB-DL 1080p Latino 1 link google drive, Sangre (2020) AMZN WEB-DL 1080p Latino hd 1080p latino.
Comentarios 0