Same Time, Next Christmas (2019) WEB-DL 1080p Latino

18 vistas
1 estrella2 estrellas3 estrellas4 estrellas5 estrellas (3 votos, promedio: 3,67 de 5)
Cargando...

Información de Same Time, Next Christmas (2019) WEB-DL 1080p Latino

Datos de la película

  • Calidad: WEBDL
  • Audio: Español Latino AC3 2.0 WEB-DL - Ingles AC3 5.1 WEB-DL
  • Subtitulos: Español Latino SRT - Ingles SRT
  • Resolución: 1920x1080
  • Formato: MKV
  • Codec: H.264
  • Encoder: cinemaniahdd
  • Mediainfo: Clic para Mostrar Datos Ver
  • Same Time, Next Christmas (2019) WEB-DL 1080p Latino [CNMNHDD].mkv
    Format                      : Matroska
    Format version              : Version 4
    File size                   : 3.76 GiB
    Duration                    : 1 h 21 min
    Overall bit rate            : 6 588 kb/s
    Movie name                  : Same Time, Next Christmas (2019) - CinemaniaHDD.Net
    Encoded date                : UTC 2021-05-02 18:34:34
    Writing application         : mkvmerge v56.1.0 ('My Friend') 64-bit
    Writing library             : libebml v1.4.2 + libmatroska v1.6.4

    Video
    ID                          : 1
    Format                      : AVC
    Format/Info                 : Advanced Video Codec
    Format profile              : High@L4
    Format settings             : CABAC / 4 Ref Frames
    Format settings, CABAC      : Yes
    Format settings, Reference  : 4 frames
    Codec ID                    : V_MPEG4/ISO/AVC
    Duration                    : 1 h 21 min
    Bit rate                    : 5 818 kb/s
    Width                       : 1 920 pixels
    Height                      : 1 080 pixels
    Display aspect ratio        : 16:9
    Frame rate mode             : Constant
    Frame rate                  : 23.976 (24000/1001) FPS
    Color space                 : YUV
    Chroma subsampling          : 4:2:0
    Bit depth                   : 8 bits
    Scan type                   : Progressive
    Bits/(Pixel*Frame)          : 0.117
    Stream size                 : 3.32 GiB (88%)
    Title                       : CinemaniaHDD
    Default                     : Yes
    Forced                      : No

    Audio #1
    ID                          : 2
    Format                      : AC-3
    Format/Info                 : Audio Coding 3
    Commercial name             : Dolby Digital
    Codec ID                    : A_AC3
    Duration                    : 1 h 21 min
    Bit rate mode               : Constant
    Bit rate                    : 384 kb/s
    Channel(s)                  : 2 channels
    Channel layout              : L R
    Sampling rate               : 48.0 kHz
    Frame rate                  : 31.250 FPS (1536 SPF)
    Compression mode            : Lossy
    Stream size                 : 224 MiB (6%)
    Title                       : Español latino [CinemaniaHDD]
    Language                    : Spanish
    Service kind                : Complete Main
    Default                     : Yes
    Forced                      : No

    Audio #2
    ID                          : 3
    Format                      : AC-3
    Format/Info                 : Audio Coding 3
    Commercial name             : Dolby Digital
    Codec ID                    : A_AC3
    Duration                    : 1 h 21 min
    Bit rate mode               : Constant
    Bit rate                    : 384 kb/s
    Channel(s)                  : 6 channels
    Channel layout              : L R C LFE Ls Rs
    Sampling rate               : 48.0 kHz
    Frame rate                  : 31.250 FPS (1536 SPF)
    Compression mode            : Lossy
    Stream size                 : 224 MiB (6%)
    Title                       : Inglés [CinemaniaHDD]
    Language                    : English
    Service kind                : Complete Main
    Default                     : No
    Forced                      : No

    Text #1
    ID                          : 4
    Format                      : UTF-8
    Codec ID                    : S_TEXT/UTF8
    Codec ID/Info               : UTF-8 Plain Text
    Duration                    : 1 h 20 min
    Bit rate                    : 66 b/s
    Count of elements           : 1414
    Stream size                 : 39.3 KiB (0%)
    Title                       : Español latino [CinemaniaHDD]
    Language                    : Spanish
    Default                     : No
    Forced                      : No

    Text #2
    ID                          : 5
    Format                      : UTF-8
    Codec ID                    : S_TEXT/UTF8
    Codec ID/Info               : UTF-8 Plain Text
    Duration                    : 1 h 21 min
    Bit rate                    : 83 b/s
    Count of elements           : 1849
    Stream size                 : 49.7 KiB (0%)
    Title                       : Inglés [CC] [CinemaniaHDD]
    Language                    : English
    Default                     : No
    Forced                      : No

     

  • Peso: 3.76 GiB

Sinopsis

Olivia es una joven que conoció a su amor de la infancia durante la visita anual de Navidad de su familia a Hawái. Años más tarde, ambos se reúnen en el mismo resort hawaiano, y pese a que la química persiste, las circunstancias los mantienen separados.

Ficha técnica

  • Titulo original: Same Time, Next Christmas
  • Fecha de lanzamiento: 05-12-2019 (United States of America)
  • Director: Stephen Herek
  • Género: Película de TV, Romance
  • Puntuación: 3.7 3 votos
  • Duración:
    1h 30m

Video trailer de la película

Enlaces de descarga

Rip de Bluray

Descargar Same Time, Next Christmas (2019) WEB-DL 1080p Latino




Aportes de DPeliculasHDmega la pass es:dpeliculashdmega.org Aportes de CinemaniaHD la pass es:cinemaniahdd.com
Guardado en : Película de TV , Romance

Películas relacionadas

  • Loco Y Estúpido Amor (2011) 1080p Latino

    Loco Y Estúpido Amor (2011) 1080p Latino

    2011
    Loco Y Estúpido Amor (2011) 1080p Latino

    0.0 1h 58m 2011

    Descargar Loco Y Estúpido Amor (2011) 1080p Latino. La situación del cuarentón y puritano Cal Weaver...

    Director: John Requa

    Género: Comedia

    Actores: Zayne Emory

  • Loco Y Estúpido Amor (2011) Full HD 1080p Latino

    Loco Y Estúpido Amor (2011) Full HD 1080p Latino

    2011
    Loco Y Estúpido Amor (2011) Full HD 1080p Latino

    0.0 1h 58m 2011

    Descargar Loco Y Estúpido Amor (2011) Full HD 1080p Latino. La situación del cuarentón y puritano...

    Director: John Requa

    Género: Comedia

    Actores: Zayne Emory

  • Loco Y Estúpido Amor (2011) REMUX 1080p Latino

    Loco Y Estúpido Amor (2011) REMUX 1080p Latino

    2011
    Loco Y Estúpido Amor (2011) REMUX 1080p Latino

    5.0 1h 58m 2011

    Descargar Loco Y Estúpido Amor (2011) REMUX 1080p Latino. La situación del cuarentón y puritano Cal...

    Director: John Requa

    Género: Comedia

    Actores: Zayne Emory

  • Love in the Forecast (2020) Star WEB-DL 1080p Latino

    Love in the Forecast (2020) Star WEB-DL 1080p Latino

    2020
    Love in the Forecast (2020) Star WEB-DL 1080p Latino

    5.0 1h 20m 2020

    Luego de renunciar a las citas durante todo un año, Leah rápidamente cae en la cuenta de que su nuevo...

    Director: Christie Will

    Género: Película de TV

    Actores: Ryan McDonell

Same Time, Next Christmas (2019) WEB-DL 1080p Latino pelicula full hd, Same Time, Next Christmas (2019) WEB-DL 1080p Latino mega latino, Same Time, Next Christmas (2019) WEB-DL 1080p Latino 4k latino, Same Time, Next Christmas (2019) WEB-DL 1080p Latino pelicula completa, Same Time, Next Christmas (2019) WEB-DL 1080p Latino descargar gratis, descargar Same Time, Next Christmas (2019) WEB-DL 1080p Latino pelicula latino, Same Time, Next Christmas (2019) WEB-DL 1080p Latino 1 link mega, Same Time, Next Christmas (2019) WEB-DL 1080p Latino 1 link google drive, Same Time, Next Christmas (2019) WEB-DL 1080p Latino hd 1080p latino.
Comentarios 0