×

¿Problemas para descargar con Mozilla, EDGE? Deshabilita la opción "Abrir vinculos en una pestaña nueva" tal como lo muestra ésta imagen.

Salvando a Zoë (2019) AMZN WEB-DL 1080p Latino

912 vistas

Información de Salvando a Zoë (2019) AMZN WEB-DL 1080p Latino

Datos de la película

  • Calidad: WEBDL
  • Audio: Español Latino AC3 2.0 WEB-DL - Ingles AC3 5.1 WEB-DL
  • Subtitulos: Español Latino SRT- FORZADOS SRT
  • Resolución: 1920x800
  • Formato: MKV
  • Codec: H.264
  • Encoder: cinemaniahdd
  • Mediainfo: Clic para Mostrar Datos Ver
  • Salvando a Zoë (2019) AMZN WEB-DL 1080p Latino.mkv
    Format                      : Matroska
    Format version              : Version 4
    File size                   : 5.04 GiB
    Duration                    : 1 h 35 min
    Overall bit rate            : 7 575 kb/s
    Movie name                  : Salvando a Zoë (2019) - CinemaniaHDD.Net
    Encoded date                : UTC 2020-04-02 05:45:08
    Writing application         : mkvmerge v42.0.0 ('Overtime') 64-bit
    Writing library             : libebml v1.3.10 + libmatroska v1.5.2

    Video
    ID                          : 1
    Format                      : AVC
    Format/Info                 : Advanced Video Codec
    Format profile              : High@L4
    Format settings             : CABAC / 4 Ref Frames
    Format settings, CABAC      : Yes
    Format settings, ReFrames   : 4 frames
    Codec ID                    : V_MPEG4/ISO/AVC
    Duration                    : 1 h 35 min
    Bit rate mode               : Constant
    Bit rate                    : 6 677 kb/s
    Nominal bit rate            : 10 000 kb/s
    Width                       : 1 920 pixels
    Height                      : 800 pixels
    Display aspect ratio        : 2.40:1
    Frame rate mode             : Constant
    Frame rate                  : 23.976 (24000/1001) FPS
    Color space                 : YUV
    Chroma subsampling          : 4:2:0
    Bit depth                   : 8 bits
    Scan type                   : Progressive
    Bits/(Pixel*Frame)          : 0.181
    Stream size                 : 4.44 GiB (88%)
    Title                       : CinemaniaHDD
    Default                     : Yes
    Forced                      : No
    Color range                 : Limited
    Color primaries             : BT.709
    Transfer characteristics    : BT.709
    Matrix coefficients         : BT.709

    Audio #1
    ID                          : 2
    Format                      : AC-3
    Format/Info                 : Audio Coding 3
    Commercial name             : Dolby Digital
    Codec ID                    : A_AC3
    Duration                    : 1 h 35 min
    Bit rate mode               : Constant
    Bit rate                    : 256 kb/s
    Channel(s)                  : 2 channels
    Channel layout              : L R
    Sampling rate               : 48.0 kHz
    Frame rate                  : 31.250 FPS (1536 SPF)
    Bit depth                   : 16 bits
    Compression mode            : Lossy
    Stream size                 : 174 MiB (3%)
    Title                       : Español latino [CinemaniaHDD]
    Language                    : Spanish
    Service kind                : Complete Main
    Default                     : Yes
    Forced                      : Yes

    Audio #2
    ID                          : 3
    Format                      : E-AC-3
    Format/Info                 : Enhanced AC-3
    Commercial name             : Dolby Digital Plus
    Codec ID                    : A_EAC3
    Duration                    : 1 h 35 min
    Bit rate mode               : Constant
    Bit rate                    : 640 kb/s
    Channel(s)                  : 6 channels
    Channel layout              : L R C LFE Ls Rs
    Sampling rate               : 48.0 kHz
    Frame rate                  : 31.250 FPS (1536 SPF)
    Compression mode            : Lossy
    Stream size                 : 436 MiB (8%)
    Title                       : Inglés [CinemaniaHDD]
    Language                    : English
    Service kind                : Complete Main
    Default                     : No
    Forced                      : No

    Text #1
    ID                          : 4
    Format                      : UTF-8
    Codec ID                    : S_TEXT/UTF8
    Codec ID/Info               : UTF-8 Plain Text
    Duration                    : 1 h 30 min
    Bit rate                    : 0 b/s
    Count of elements           : 14
    Stream size                 : 488 Bytes (0%)
    Title                       : Forzados [CinemaniaHDD]
    Language                    : Spanish
    Default                     : Yes
    Forced                      : Yes

    Text #2
    ID                          : 5
    Format                      : UTF-8
    Codec ID                    : S_TEXT/UTF8
    Codec ID/Info               : UTF-8 Plain Text
    Duration                    : 1 h 33 min
    Bit rate                    : 42 b/s
    Count of elements           : 984
    Stream size                 : 29.3 KiB (0%)
    Title                       : Español latino [CinemaniaHDD]
    Language                    : Spanish
    Default                     : No
    Forced                      : No

    Text #3
    ID                          : 6
    Format                      : UTF-8
    Codec ID                    : S_TEXT/UTF8
    Codec ID/Info               : UTF-8 Plain Text
    Duration                    : 1 h 32 min
    Bit rate                    : 47 b/s
    Count of elements           : 1199
    Stream size                 : 32.2 KiB (0%)
    Title                       : Inglés [CinemaniaHDD]
    Language                    : English
    Default                     : No
    Forced                      : No

    Menu
    00:00:00.000                : en:Studio Logo
    00:00:23.000                : en:Title Sequence
    00:01:00.000                : en:Echo wakes up to go to school
    00:03:04.000                : en:Abby and Echo grab lunch together
    00:06:36.000                : en:Life at home
    00:10:08.000                : en:Marc's new car yields a discovery
    00:17:36.000                : en:Echo meets with a psychiatrist
    00:20:02.000                : en:Echo keeps reading Zoe's diary
    00:22:04.000                : en:Echo sees Marc at lunch
    00:24:48.000                : en:Echo and Abby go to a party
    00:28:43.000                : en:Zoe starts her part time job
    00:30:54.000                : en:Zoe brings Marc to Theresa's party
    00:34:01.000                : en:Echo goes to her first high school dance
    00:41:05.000                : en:Zoe works toward a modeling career
    00:44:42.000                : en:Echo remembers something
    00:47:19.000                : en:Echo comes to the party
    00:50:52.000                : en:Echo follows in Zoe's tracks
    00:54:40.000                : en:Echo finds out what Zoe left
    01:00:38.000                : en:Another session with the psychiatrist
    01:03:08.000                : en:Echo tells her plan to Marc
    01:05:31.000                : en:Jason invites Echo to his place
    01:10:42.000                : en:Marc distracts Jason
    01:14:16.000                : en:Jason offers a deal
    01:18:06.000                : en:Jason and Tom argue about what to do next
    01:21:38.000                : en:Echo tries to escape
    01:23:27.000                : en:The truth always manages to come out
    01:28:34.000                : en:It's time to move on
    01:30:44.000                : en:End Credits

     

  • Peso: 5.04 GiB

Sinopsis

Echo no logra superar la muerte de su hermana, pero accidentalmente encuentra su diario íntimo y se da cuenta de que llora a una perfecta desconocida.

Ficha técnica

  • Titulo original: Saving Zoë
  • Fecha de lanzamiento: 12-07-2019 (United States of America)
  • Director: Jeffrey G. Hunt
  • Género: Drama, Misterio

Video trailer de la película

Enlaces de descarga

Rip de Bluray

Descargar Salvando a Zoë (2019) AMZN WEB-DL 1080p Latino




Aportes de DPeliculasHDmega la pass es:dpeliculashdmega.org Aportes de CinemaniaHD la pass es:cinemaniahdd.com
Guardado en : Drama , Misterio

Películas relacionadas

descargar Salvando a Zoë (2019) AMZN WEB-DL 1080p Latino WEBDL 1080p gratis, Salvando a Zoë (2019) AMZN WEB-DL 1080p Latino WEBDL mega 1 link, Salvando a Zoë (2019) AMZN WEB-DL 1080p Latino WEBDL pelicula completa, descargar Salvando a Zoë (2019) AMZN WEB-DL 1080p Latino WEBDL gratis en mega.

Salvando a Zoë (2019) AMZN WEB-DL 1080p Latino pelicula full hd, Salvando a Zoë (2019) AMZN WEB-DL 1080p Latino mega latino, Salvando a Zoë (2019) AMZN WEB-DL 1080p Latino 4k latino, Salvando a Zoë (2019) AMZN WEB-DL 1080p Latino pelicula completa, Salvando a Zoë (2019) AMZN WEB-DL 1080p Latino descargar gratis, descargar Salvando a Zoë (2019) AMZN WEB-DL 1080p Latino pelicula latino, Salvando a Zoë (2019) AMZN WEB-DL 1080p Latino 1 link mega, Salvando a Zoë (2019) AMZN WEB-DL 1080p Latino 1 link google drive, Salvando a Zoë (2019) AMZN WEB-DL 1080p Latino hd 1080p latino.
Comentarios 0