×

¿Problemas para descargar con Mozilla, EDGE? Deshabilita la opción "Abrir vinculos en una pestaña nueva" tal como lo muestra ésta imagen.

Salva el Teatro (2022) WEB-DL 1080p Latino

13 vistas

Información de Salva el Teatro (2022) WEB-DL 1080p Latino

Datos de la película

  • Calidad: WEBDL
  • Audio: Español Latino AC3 5.1 WEB-DL - Ingles AC3 5.1 WEB-DL
  • Subtitulos: Español Latino SRT- FORZADOS SRT
  • Resolución: 1920x1080p
  • Formato: MKV
  • Codec: H.264
  • Encoder: Melkor
  • Mediainfo: Clic para Mostrar Datos Ver
  • Salva El Teatro (2022) WebDL 1080p Latino.mkv
    Format                      : Matroska
    Format version              : Version 4
    File size                   : 6.16 GiB
    Duration                    : 1 h 44 min
    Overall bit rate            : 8 451 kb/s
    Movie name                  : Save the Cinema (2022) CinemaniaHDD.Net
    Encoded date                : UTC 2022-11-25 04:26:05
    Writing application         : mkvmerge v56.1.0 ('My Friend') 64-bit
    Writing library             : libebml v1.4.2 + libmatroska v1.6.4
    Attachments                 : CINEMANIAHD.png

    Video
    ID                          : 1
    Format                      : AVC
    Format/Info                 : Advanced Video Codec
    Format profile              : High@L4.1
    Format settings             : CABAC / 2 Ref Frames
    Format settings, CABAC      : Yes
    Format settings, Reference  : 2 frames
    Codec ID                    : V_MPEG4/ISO/AVC
    Duration                    : 1 h 44 min
    Bit rate mode               : Constant
    Bit rate                    : 7 830 kb/s
    Width                       : 1 920 pixels
    Height                      : 1 080 pixels
    Display aspect ratio        : 16:9
    Frame rate mode             : Constant
    Frame rate                  : 25.000 FPS
    Color space                 : YUV
    Chroma subsampling          : 4:2:0
    Bit depth                   : 8 bits
    Scan type                   : Progressive
    Bits/(Pixel*Frame)          : 0.151
    Stream size                 : 5.69 GiB (92%)
    Title                       : Web HD1080p [CinemaniaHDD]
    Language                    : English
    Default                     : Yes
    Forced                      : Yes

    Audio #1
    ID                          : 2
    Format                      : AC-3
    Format/Info                 : Audio Coding 3
    Commercial name             : Dolby Digital
    Codec ID                    : A_AC3
    Duration                    : 1 h 44 min
    Bit rate mode               : Constant
    Bit rate                    : 448 kb/s
    Channel(s)                  : 6 channels
    Channel layout              : L R C LFE Ls Rs
    Sampling rate               : 48.0 kHz
    Frame rate                  : 31.250 FPS (1536 SPF)
    Compression mode            : Lossy
    Stream size                 : 334 MiB (5%)
    Title                       : Español Latino [CinemaniaHDD]
    Language                    : Spanish
    Service kind                : Complete Main
    Default                     : Yes
    Forced                      : Yes

    Audio #2
    ID                          : 3
    Format                      : E-AC-3
    Format/Info                 : Enhanced AC-3
    Commercial name             : Dolby Digital Plus
    Codec ID                    : A_EAC3
    Duration                    : 1 h 44 min
    Bit rate mode               : Constant
    Bit rate                    : 192 kb/s
    Channel(s)                  : 6 channels
    Channel layout              : L R C LFE Ls Rs
    Sampling rate               : 48.0 kHz
    Frame rate                  : 31.250 FPS (1536 SPF)
    Compression mode            : Lossy
    Stream size                 : 143 MiB (2%)
    Title                       : Ingles [CinemaniaHDD]
    Language                    : English
    Service kind                : Complete Main
    Default                     : No
    Forced                      : No

    Text #1
    ID                          : 4
    Format                      : UTF-8
    Codec ID                    : S_TEXT/UTF8
    Codec ID/Info               : UTF-8 Plain Text
    Duration                    : 2 s 0 ms
    Bit rate                    : 44 b/s
    Count of elements           : 1
    Stream size                 : 11.0 Bytes (0%)
    Title                       : Forzados-SRT [CinemaniaHDD]
    Language                    : Spanish
    Default                     : Yes
    Forced                      : Yes

    Text #2
    ID                          : 5
    Format                      : UTF-8
    Codec ID                    : S_TEXT/UTF8
    Codec ID/Info               : UTF-8 Plain Text
    Duration                    : 1 h 35 min
    Bit rate                    : 76 b/s
    Count of elements           : 1303
    Stream size                 : 53.8 KiB (0%)
    Title                       : Español-SRT [CinemaniaHDD]
    Language                    : Spanish
    Default                     : No
    Forced                      : No

    Text #3
    ID                          : 6
    Format                      : UTF-8
    Codec ID                    : S_TEXT/UTF8
    Codec ID/Info               : UTF-8 Plain Text
    Duration                    : 1 h 38 min
    Bit rate                    : 96 b/s
    Count of elements           : 1750
    Stream size                 : 69.5 KiB (0%)
    Title                       : Ingles-SRT [CinemaniaHDD]
    Language                    : English
    Default                     : No
    Forced                      : No

  • Peso: 6.16 GiB

Sinopsis

Descargar Salva el Teatro (2022) WEB-DL 1080p Latino. La verdadera historia de Liz Evans, peluquera y directora de un teatro juvenil en Carmarthen, Gales, que inició una campaña en 1993 para evitar el cierre del teatro Lyric. Junto con el entonces alcalde de Carmarthen, Richard Goodridge, solicitaron la ayuda de Steven Spielberg, asegurando un estreno especial de Jurassic Park.

Ficha técnica

  • Titulo original: Save the Cinema
  • Fecha de lanzamiento: 14-01-2022 (United Kingdom)
  • Director: Sara Sugarman
  • Género: Drama

Video trailer de la película

Enlaces de descarga

Rip de Bluray

Descargar Salva el Teatro (2022) WEB-DL 1080p Latino




Aportes de DPeliculasHDmega la pass es:dpeliculashdmega.org Aportes de CinemaniaHD la pass es:cinemaniahdd.com
Guardado en : Drama

Películas relacionadas

descargar Salva el Teatro (2022) WEB-DL 1080p Latino WEBDL 1080p gratis, Salva el Teatro (2022) WEB-DL 1080p Latino WEBDL mega 1 link, Salva el Teatro (2022) WEB-DL 1080p Latino WEBDL pelicula completa, descargar Salva el Teatro (2022) WEB-DL 1080p Latino WEBDL gratis en mega.

Salva el Teatro (2022) WEB-DL 1080p Latino pelicula full hd, Salva el Teatro (2022) WEB-DL 1080p Latino mega latino, Salva el Teatro (2022) WEB-DL 1080p Latino 4k latino, Salva el Teatro (2022) WEB-DL 1080p Latino pelicula completa, Salva el Teatro (2022) WEB-DL 1080p Latino descargar gratis, descargar Salva el Teatro (2022) WEB-DL 1080p Latino pelicula latino, Salva el Teatro (2022) WEB-DL 1080p Latino 1 link mega, Salva el Teatro (2022) WEB-DL 1080p Latino 1 link google drive, Salva el Teatro (2022) WEB-DL 1080p Latino hd 1080p latino.
Comentarios 0