×

¿Problemas para descargar con Mozilla, EDGE? Deshabilita la opción "Abrir vinculos en una pestaña nueva" tal como lo muestra ésta imagen.

Salva El Teatro (2022) PLACEBO Full HD 1080p Latino

213 vistas

Información de Salva El Teatro (2022) PLACEBO Full HD 1080p Latino

Datos de la película

  • Calidad: Full 1080p
  • Audio: Español Latino AC3 5.1 WEB-DL - Ingles DTS 5.1 BLURAY
  • Subtitulos: Español Latino SRT- FORZADOS SRT
  • Resolución: 1920x1080p
  • Formato: MKV
  • Codec: H.264
  • Encoder: Melkor
  • Mediainfo: Clic para Mostrar Datos Ver
  • Salva El Teatro (2022) PLACEBO 1080p Latino.mkv
    Format                      : Matroska
    Format version              : Version 4
    File size                   : 4.62 GiB
    Duration                    : 1 h 49 min
    Overall bit rate            : 6 047 kb/s
    Movie name                  : Save The Cinema (2022) CinemaniaHDD.Net
    Encoded date                : UTC 2023-04-27 05:47:36
    Writing application         : mkvmerge v56.1.0 ('My Friend') 64-bit
    Writing library             : libebml v1.4.2 + libmatroska v1.6.4
    Attachments                 : CINEMANIAHD.png
    Site                        : CinemaniaHDD.Net
    Uploader                    : Melkor

    Video
    ID                          : 1
    Format                      : AVC
    Format/Info                 : Advanced Video Codec
    Format profile              : High@L4.1
    Format settings             : CABAC / 4 Ref Frames
    Format settings, CABAC      : Yes
    Format settings, Reference  : 4 frames
    Codec ID                    : V_MPEG4/ISO/AVC
    Duration                    : 1 h 49 min
    Bit rate                    : 4 060 kb/s
    Width                       : 1 920 pixels
    Height                      : 1 080 pixels
    Display aspect ratio        : 16:9
    Frame rate mode             : Constant
    Frame rate                  : 23.976 (24000/1001) FPS
    Color space                 : YUV
    Chroma subsampling          : 4:2:0
    Bit depth                   : 8 bits
    Scan type                   : Progressive
    Bits/(Pixel*Frame)          : 0.082
    Stream size                 : 3.10 GiB (67%)
    Title                       : Full HD1080p [CinemaniaHDD]
    Writing library             : x264 core 163 r3059 b684ebe0
    Encoding settings           : cabac=1 / ref=4 / deblock=1:0:0 / analyse=0x3:0x133 / me=tesa / subme=11 / psy=1 / psy_rd=1.00:0.00 / mixed_ref=1 / me_range=24 / chroma_me=1 / trellis=2 / 8x8dct=1 / cqm=0 / deadzone=21,11 / fast_pskip=0 / chroma_qp_offset=-2 / threads=24 / lookahead_threads=6 / sliced_threads=0 / nr=0 / decimate=1 / interlaced=0 / bluray_compat=0 / constrained_intra=0 / bframes=16 / b_pyramid=2 / b_adapt=2 / b_bias=0 / direct=3 / weightb=1 / open_gop=0 / weightp=2 / keyint=240 / keyint_min=24 / scenecut=40 / intra_refresh=0 / rc_lookahead=60 / rc=crf / mbtree=1 / crf=19.0 / qcomp=0.60 / qpmin=0 / qpmax=69 / qpstep=4 / vbv_maxrate=62500 / vbv_bufsize=78125 / crf_max=0.0 / nal_hrd=none / filler=0 / ip_ratio=1.40 / aq=1:1.00
    Default                     : Yes
    Forced                      : Yes
    Color range                 : Limited
    Color primaries             : BT.709
    Transfer characteristics    : BT.709
    Matrix coefficients         : BT.709

    Audio #1
    ID                          : 2
    Format                      : AC-3
    Format/Info                 : Audio Coding 3
    Commercial name             : Dolby Digital
    Codec ID                    : A_AC3
    Duration                    : 1 h 49 min
    Bit rate mode               : Constant
    Bit rate                    : 448 kb/s
    Channel(s)                  : 6 channels
    Channel layout              : L R C LFE Ls Rs
    Sampling rate               : 48.0 kHz
    Frame rate                  : 31.250 FPS (1536 SPF)
    Compression mode            : Lossy
    Stream size                 : 351 MiB (7%)
    Title                       : Español Latino [CinemaniaHDD]
    Language                    : Spanish
    Service kind                : Complete Main
    Default                     : Yes
    Forced                      : Yes

    Audio #2
    ID                          : 3
    Format                      : DTS
    Format/Info                 : Digital Theater Systems
    Codec ID                    : A_DTS
    Duration                    : 1 h 49 min
    Bit rate mode               : Constant
    Bit rate                    : 1 509 kb/s
    Channel(s)                  : 6 channels
    Channel layout              : C L R Ls Rs LFE
    Sampling rate               : 48.0 kHz
    Frame rate                  : 93.750 FPS (512 SPF)
    Bit depth                   : 24 bits
    Compression mode            : Lossy
    Stream size                 : 1.15 GiB (25%)
    Title                       : Ingles [CinemaniaHDD]
    Language                    : English
    Default                     : No
    Forced                      : No

    Text #1
    ID                          : 4
    Format                      : UTF-8
    Codec ID                    : S_TEXT/UTF8
    Codec ID/Info               : UTF-8 Plain Text
    Duration                    : 2 s 86 ms
    Bit rate                    : 42 b/s
    Count of elements           : 1
    Stream size                 : 11.0 Bytes (0%)
    Title                       : Forzados-SRT [CinemaniaHDD]
    Language                    : Spanish
    Default                     : Yes
    Forced                      : Yes

    Text #2
    ID                          : 5
    Format                      : UTF-8
    Codec ID                    : S_TEXT/UTF8
    Codec ID/Info               : UTF-8 Plain Text
    Duration                    : 1 h 40 min
    Bit rate                    : 73 b/s
    Count of elements           : 1303
    Stream size                 : 53.8 KiB (0%)
    Title                       : Español-SRT [CinemaniaHDD]
    Language                    : Spanish
    Default                     : No
    Forced                      : No

    Text #3
    ID                          : 6
    ID in the original source m : 4608 (0x1200)
    Format                      : PGS
    Muxing mode                 : zlib
    Codec ID                    : S_HDMV/PGS
    Codec ID/Info               : Picture based subtitle format used on BDs/HD-DVDs
    Duration                    : 1 h 44 min
    Bit rate                    : 54.5 kb/s
    Count of elements           : 4196
    Stream size                 : 40.7 MiB (1%)
    Title                       : Ingles [CinemaniaHDD]
    Language                    : English
    Default                     : No
    Forced                      : No
    Original source medium      : Blu-ray

    Menu
    00:00:00.000                : Chapter 01
    00:12:08.769                : Chapter 02
    00:26:11.987                : Chapter 03
    00:39:14.894                : Chapter 04
    00:52:36.153                : Chapter 05
    01:06:20.309                : Chapter 06
    01:25:48.017                : Chapter 07
    01:39:08.317                : Chapter 08

  • Peso: 4.62 GiB

Sinopsis

Descargar Salva El Teatro (2022) PLACEBO Full HD 1080p Latino. La verdadera historia de Liz Evans, peluquera y directora de un teatro juvenil en Carmarthen, Gales, que inició una campaña en 1993 para evitar el cierre del teatro Lyric. Junto con el entonces alcalde de Carmarthen, Richard Goodridge, solicitaron la ayuda de Steven Spielberg, asegurando un estreno especial de Jurassic Park.

Ficha técnica

Video trailer de la película

Enlaces de descarga

Rip de Bluray

Descargar Salva El Teatro (2022) PLACEBO Full HD 1080p Latino




Aportes de DPeliculasHDmega la pass es:dpeliculashdmega.org Aportes de CinemaniaHD la pass es:cinemaniahdd.com Aportes recientes:cinemaniahdd.net

Películas relacionadas

descargar Salva El Teatro (2022) PLACEBO Full HD 1080p Latino Full 1080p 1080p gratis, Salva El Teatro (2022) PLACEBO Full HD 1080p Latino Full 1080p mega 1 link, Salva El Teatro (2022) PLACEBO Full HD 1080p Latino Full 1080p pelicula completa, descargar Salva El Teatro (2022) PLACEBO Full HD 1080p Latino Full 1080p gratis en mega.

Salva El Teatro (2022) PLACEBO Full HD 1080p Latino pelicula full hd, Salva El Teatro (2022) PLACEBO Full HD 1080p Latino mega latino, Salva El Teatro (2022) PLACEBO Full HD 1080p Latino 4k latino, Salva El Teatro (2022) PLACEBO Full HD 1080p Latino pelicula completa, Salva El Teatro (2022) PLACEBO Full HD 1080p Latino descargar gratis, descargar Salva El Teatro (2022) PLACEBO Full HD 1080p Latino pelicula latino, Salva El Teatro (2022) PLACEBO Full HD 1080p Latino 1 link mega, Salva El Teatro (2022) PLACEBO Full HD 1080p Latino 1 link google drive, Salva El Teatro (2022) PLACEBO Full HD 1080p Latino hd 1080p latino.
Comentarios 0