×

¿Problemas para descargar con Mozilla, EDGE? Deshabilita la opción "Abrir vinculos en una pestaña nueva" tal como lo muestra ésta imagen.

Saltburn (2023) AMZN WEB-DL 1080p Latino

187 vistas

Información de Saltburn (2023) AMZN WEB-DL 1080p Latino

Datos de la película

  • Calidad: 1080p
  • Audio: Español Latino AC3 5.1 WEB-DL - Ingles AC3 5.1 WEB-DL
  • Subtitulos: Español Latino SRT- FORZADOS SRT
  • Resolución: 1440x1080
  • Formato: MKV
  • Codec: H.264
  • Encoder: cinemaniahdd
  • Mediainfo: Clic para Mostrar Datos Ver
  • Saltburn (2023) AMZN WEB-DL 1080p Latino [CNMNHDD].mkv
    Format                      : Matroska
    Format version              : Version 4
    File size                   : 8.86 GiB
    Duration                    : 2 h 11 min
    Overall bit rate            : 9 630 kb/s
    Movie name                  : Saltburn (2023) [1080p] - CinemaniaHDD.Net
    Encoded date                : UTC 2023-12-22 00:14:30
    Writing application         : mkvmerge v56.1.0 ('My Friend') 64-bit
    Writing library             : libebml v1.4.2 + libmatroska v1.6.4

    Video
    ID                          : 1
    Format                      : AVC
    Format/Info                 : Advanced Video Codec
    Format profile              : High@L4
    Format settings             : CABAC / 4 Ref Frames
    Format settings, CABAC      : Yes
    Format settings, Reference  : 4 frames
    Codec ID                    : V_MPEG4/ISO/AVC
    Duration                    : 2 h 11 min
    Bit rate mode               : Constant
    Bit rate                    : 7 707 kb/s
    Nominal bit rate            : 10 000 kb/s
    Width                       : 1 440 pixels
    Height                      : 1 080 pixels
    Display aspect ratio        : 4:3
    Frame rate mode             : Constant
    Frame rate                  : 24.000 FPS
    Color space                 : YUV
    Chroma subsampling          : 4:2:0
    Bit depth                   : 8 bits
    Scan type                   : Progressive
    Bits/(Pixel*Frame)          : 0.206
    Stream size                 : 7.09 GiB (80%)
    Title                       : CinemaniaHDD
    Default                     : Yes
    Forced                      : No
    Color range                 : Limited
    Color primaries             : BT.709
    Transfer characteristics    : BT.709
    Matrix coefficients         : BT.709

    Audio #1
    ID                          : 2
    Format                      : AC-3
    Format/Info                 : Audio Coding 3
    Commercial name             : Dolby Digital
    Codec ID                    : A_AC3
    Duration                    : 2 h 11 min
    Bit rate mode               : Constant
    Bit rate                    : 640 kb/s
    Channel(s)                  : 6 channels
    Channel layout              : L R C LFE Ls Rs
    Sampling rate               : 48.0 kHz
    Frame rate                  : 31.250 FPS (1536 SPF)
    Compression mode            : Lossy
    Stream size                 : 603 MiB (7%)
    Title                       : Español Latino [CinemaniaHDD]
    Language                    : Spanish
    Service kind                : Complete Main
    Default                     : Yes
    Forced                      : No

    Audio #2
    ID                          : 3
    Format                      : E-AC-3
    Format/Info                 : Enhanced AC-3
    Commercial name             : Dolby Digital Plus
    Codec ID                    : A_EAC3
    Duration                    : 2 h 11 min
    Bit rate mode               : Constant
    Bit rate                    : 640 kb/s
    Channel(s)                  : 6 channels
    Channel layout              : L R C LFE Ls Rs
    Sampling rate               : 48.0 kHz
    Frame rate                  : 31.250 FPS (1536 SPF)
    Compression mode            : Lossy
    Stream size                 : 603 MiB (7%)
    Title                       : Español latino / E-AC3 [CinemaniaHDD]
    Language                    : Spanish
    Service kind                : Complete Main
    Default                     : No
    Forced                      : No

    Audio #3
    ID                          : 4
    Format                      : E-AC-3
    Format/Info                 : Enhanced AC-3
    Commercial name             : Dolby Digital Plus
    Codec ID                    : A_EAC3
    Duration                    : 2 h 11 min
    Bit rate mode               : Constant
    Bit rate                    : 640 kb/s
    Channel(s)                  : 6 channels
    Channel layout              : L R C LFE Ls Rs
    Sampling rate               : 48.0 kHz
    Frame rate                  : 31.250 FPS (1536 SPF)
    Compression mode            : Lossy
    Stream size                 : 603 MiB (7%)
    Title                       : Inglés [CinemaniaHDD]
    Language                    : English
    Service kind                : Complete Main
    Default                     : No
    Forced                      : No

    Text #1
    ID                          : 5
    Format                      : UTF-8
    Codec ID                    : S_TEXT/UTF8
    Codec ID/Info               : UTF-8 Plain Text
    Duration                    : 1 h 51 min
    Bit rate                    : 0 b/s
    Count of elements           : 21
    Stream size                 : 516 Bytes (0%)
    Title                       : Forzados [CinemaniaHDD]
    Language                    : Spanish
    Default                     : Yes
    Forced                      : Yes

    Text #2
    ID                          : 6
    Format                      : UTF-8
    Codec ID                    : S_TEXT/UTF8
    Codec ID/Info               : UTF-8 Plain Text
    Duration                    : 2 h 9 min
    Bit rate                    : 42 b/s
    Count of elements           : 1527
    Stream size                 : 40.3 KiB (0%)
    Title                       : Español Latino [CinemaniaHDD]
    Language                    : Spanish
    Default                     : No
    Forced                      : No

    Text #3
    ID                          : 7
    Format                      : UTF-8
    Codec ID                    : S_TEXT/UTF8
    Codec ID/Info               : UTF-8 Plain Text
    Duration                    : 2 h 6 min
    Bit rate                    : 69 b/s
    Count of elements           : 2271
    Stream size                 : 64.6 KiB (0%)
    Title                       : Inglés [CinemaniaHDD]
    Language                    : English
    Default                     : No
    Forced                      : No

     

  • Peso: 8.86 GiB

Sinopsis

La ganadora de un Oscar, Emerald Fennell, nos trae una hermosa y perversa historia de privilegio y deseo. Luchando por encontrar su lugar en la Universidad de Oxford, el estudiante Oliver Quick (Barry Keoghan) se ve arrastrado al mundo del encantador aristócrata Felix Catton (Jacob Elordi), quien lo invita a Saltburn, la residencia de su excéntrica familia, para pasar un verano inolvidable.

Ficha técnica

Video trailer de la película

Enlaces de descarga

Rip de Bluray

Descargar Saltburn (2023) AMZN WEB-DL 1080p Latino




Aportes de DPeliculasHDmega la pass es:dpeliculashdmega.org Aportes de CinemaniaHD la pass es:cinemaniahdd.com Aportes recientes:cinemaniahdd.net
Guardado en : Comedia , Drama , Suspenso

Películas relacionadas

  • El Oso (2022) Temporada 2 WEB-DL 1080p Latino

    El Oso (2022) Temporada 2 WEB-DL 1080p Latino

    2022
    El Oso (2022) Temporada 2 WEB-DL 1080p Latino

    0h 0m 2022

    Descargar El Oso (2022) Temporada 2 WEB-DL 1080p Latino. Carmy, un joven chef de alta cocina, vuelve...

    Director: Christopher Storer

    Género: Comedia

    Actores: Matty Matheson

  • El Oso (2022) Temporada 1 WEB-DL 1080p Latino

    El Oso (2022) Temporada 1 WEB-DL 1080p Latino

    2022
    El Oso (2022) Temporada 1 WEB-DL 1080p Latino

    0h 0m 2022

    Descargar El Oso (2022) Temporada 1 WEB-DL 1080p Latino. Carmy, un joven chef de alta cocina, vuelve...

    Director: Christopher Storer

    Género: Comedia

    Actores: Matty Matheson

  • Wolves (2022) AMZN WEB-DL 1080p Latino

    Wolves (2022) AMZN WEB-DL 1080p Latino

    2022
    Wolves (2022) AMZN WEB-DL 1080p Latino

    1h 43m 2022

    Un joven solitario se depara con una serie de crímenes sin resolver, que involucran animales mutilados...

    Director: Danny Dunlop

    Género: Crimen

    Actores: Rod Keith

descargar Saltburn (2023) AMZN WEB-DL 1080p Latino 1080p 1080p gratis, Saltburn (2023) AMZN WEB-DL 1080p Latino 1080p mega 1 link, Saltburn (2023) AMZN WEB-DL 1080p Latino 1080p pelicula completa, descargar Saltburn (2023) AMZN WEB-DL 1080p Latino 1080p gratis en mega.

Saltburn (2023) AMZN WEB-DL 1080p Latino pelicula full hd, Saltburn (2023) AMZN WEB-DL 1080p Latino mega latino, Saltburn (2023) AMZN WEB-DL 1080p Latino 4k latino, Saltburn (2023) AMZN WEB-DL 1080p Latino pelicula completa, Saltburn (2023) AMZN WEB-DL 1080p Latino descargar gratis, descargar Saltburn (2023) AMZN WEB-DL 1080p Latino pelicula latino, Saltburn (2023) AMZN WEB-DL 1080p Latino 1 link mega, Saltburn (2023) AMZN WEB-DL 1080p Latino 1 link google drive, Saltburn (2023) AMZN WEB-DL 1080p Latino hd 1080p latino.
Comentarios 0