Salida Francesa (2021) PLACEBO Full HD 1080p Latino

79 vistas
1 estrella2 estrellas3 estrellas4 estrellas5 estrellas (Ninguna valoración todavía)
Cargando...

Información de Salida Francesa (2021) PLACEBO Full HD 1080p Latino

Datos de la película

  • Calidad: Full 1080p
  • Audio: Se especifica abajo de la Sinopsis
  • Subtitulos: Español Latino PGS - Ingles PGS
  • Resolución: 1920x1080p
  • Formato: MKV
  • Codec: H.264
  • Encoder: Melkor
  • Mediainfo: Clic para Mostrar Datos Ver
  • Salida Francesa (2020) PLACEBO 1080p Latino.mkv
    Format                      : Matroska
    Format version              : Version 4
    File size                   : 4.96 GiB
    Duration                    : 1 h 52 min
    Overall bit rate            : 6 291 kb/s
    Movie name                  : French Exit (2020) CinemaniaHDD.Net
    Encoded date                : UTC 2021-07-03 09:20:22
    Writing application         : mkvmerge v56.1.0 ('My Friend') 64-bit
    Writing library             : libebml v1.4.2 + libmatroska v1.6.4
    Attachments                 : CINEMANIAHD.png

    Video
    ID                          : 1
    Format                      : AVC
    Format/Info                 : Advanced Video Codec
    Format profile              : High@L4.1
    Format settings             : CABAC / 4 Ref Frames
    Format settings, CABAC      : Yes
    Format settings, Reference  : 4 frames
    Codec ID                    : V_MPEG4/ISO/AVC
    Duration                    : 1 h 52 min
    Bit rate                    : 4 310 kb/s
    Width                       : 1 920 pixels
    Height                      : 1 080 pixels
    Display aspect ratio        : 16:9
    Frame rate mode             : Constant
    Frame rate                  : 23.976 (24000/1001) FPS
    Color space                 : YUV
    Chroma subsampling          : 4:2:0
    Bit depth                   : 8 bits
    Scan type                   : Progressive
    Bits/(Pixel*Frame)          : 0.087
    Stream size                 : 3.40 GiB (69%)
    Title                       : Full HD1080p [CinemaniaHDD]
    Writing library             : x264 core 157 r2935 545de2f
    Encoding settings           : cabac=1 / ref=4 / deblock=1:0:0 / analyse=0x3:0x133 / me=tesa / subme=11 / psy=1 / psy_rd=1.00:0.00 / mixed_ref=1 / me_range=24 / chroma_me=1 / trellis=2 / 8x8dct=1 / cqm=0 / deadzone=21,11 / fast_pskip=0 / chroma_qp_offset=-2 / threads=24 / lookahead_threads=6 / sliced_threads=0 / nr=0 / decimate=1 / interlaced=0 / bluray_compat=0 / constrained_intra=0 / bframes=16 / b_pyramid=2 / b_adapt=2 / b_bias=0 / direct=3 / weightb=1 / open_gop=0 / weightp=2 / keyint=240 / keyint_min=24 / scenecut=40 / intra_refresh=0 / rc_lookahead=60 / rc=crf / mbtree=1 / crf=19.0 / qcomp=0.60 / qpmin=0 / qpmax=69 / qpstep=4 / vbv_maxrate=62500 / vbv_bufsize=78125 / crf_max=0.0 / nal_hrd=none / filler=0 / ip_ratio=1.40 / aq=1:1.00
    Default                     : Yes
    Forced                      : Yes
    Color range                 : Limited
    Color primaries             : BT.709
    Transfer characteristics    : BT.709
    Matrix coefficients         : BT.709

    Audio #1
    ID                          : 2
    Format                      : AC-3
    Format/Info                 : Audio Coding 3
    Commercial name             : Dolby Digital
    Codec ID                    : A_AC3
    Duration                    : 1 h 52 min
    Bit rate mode               : Constant
    Bit rate                    : 448 kb/s
    Channel(s)                  : 6 channels
    Channel layout              : L R C LFE Ls Rs
    Sampling rate               : 48.0 kHz
    Frame rate                  : 31.250 FPS (1536 SPF)
    Compression mode            : Lossy
    Stream size                 : 362 MiB (7%)
    Title                       : Español Latino [CinemaniaHDD]
    Language                    : Spanish
    Service kind                : Complete Main
    Default                     : Yes
    Forced                      : No

    Audio #2
    ID                          : 3
    Format                      : DTS
    Format/Info                 : Digital Theater Systems
    Codec ID                    : A_DTS
    Duration                    : 1 h 52 min
    Bit rate mode               : Constant
    Bit rate                    : 1 509 kb/s
    Channel(s)                  : 6 channels
    Channel layout              : C L R Ls Rs LFE
    Sampling rate               : 48.0 kHz
    Frame rate                  : 93.750 FPS (512 SPF)
    Bit depth                   : 24 bits
    Compression mode            : Lossy
    Stream size                 : 1.19 GiB (24%)
    Title                       : Ingles [CinemaniaHDD]
    Language                    : English
    Default                     : No
    Forced                      : No

    Text #1
    ID                          : 4
    ID in the original source m : 4611 (0x1203)
    Format                      : PGS
    Muxing mode                 : zlib
    Codec ID                    : S_HDMV/PGS
    Codec ID/Info               : Picture based subtitle format used on BDs/HD-DVDs
    Duration                    : 1 h 51 min
    Bit rate                    : 21.3 kb/s
    Count of elements           : 2080
    Stream size                 : 17.0 MiB (0%)
    Title                       : Español-PGS [CinemaniaHDD]
    Language                    : Spanish
    Default                     : No
    Forced                      : No
    Original source medium      : Blu-ray

    Text #2
    ID                          : 5
    ID in the original source m : 4609 (0x1201)
    Format                      : PGS
    Muxing mode                 : zlib
    Codec ID                    : S_HDMV/PGS
    Codec ID/Info               : Picture based subtitle format used on BDs/HD-DVDs
    Duration                    : 1 h 45 min
    Bit rate                    : 26.5 kb/s
    Count of elements           : 2394
    Stream size                 : 20.0 MiB (0%)
    Title                       : Ingles-PGS [CinemaniaHDD]
    Language                    : English
    Default                     : No
    Forced                      : No
    Original source medium      : Blu-ray

    Text #3
    ID                          : 6
    Format                      : UTF-8
    Codec ID                    : S_TEXT/UTF8
    Codec ID/Info               : UTF-8 Plain Text
    Duration                    : 2 s 2 ms
    Bit rate                    : 55 b/s
    Count of elements           : 1
    Stream size                 : 14.0 Bytes (0%)
    Title                       : Forzados-SRT [CinemaniaHDD]
    Language                    : Spanish
    Default                     : Yes
    Forced                      : No

    Text #4
    ID                          : 7
    Format                      : UTF-8
    Codec ID                    : S_TEXT/UTF8
    Codec ID/Info               : UTF-8 Plain Text
    Duration                    : 1 h 44 min
    Bit rate                    : 43 b/s
    Count of elements           : 1038
    Stream size                 : 33.3 KiB (0%)
    Title                       : Español-SRT [CinemaniaHDD]
    Language                    : Spanish
    Default                     : No
    Forced                      : No

    Menu
    00:00:00.000                : Chapter 01
    00:10:42.558                : Chapter 02
    00:19:28.125                : Chapter 03
    00:25:27.526                : Chapter 04
    00:35:12.568                : Chapter 05
    00:47:02.653                : Chapter 06
    00:52:10.919                : Chapter 07
    01:00:25.163                : Chapter 08
    01:08:27.770                : Chapter 09
    01:13:41.708                : Chapter 10
    01:17:07.789                : Chapter 11
    01:23:57.532                : Chapter 12
    01:34:08.017                : Chapter 13
    01:38:56.847                : Chapter 14
    01:41:21.825                : Chapter 15
    01:43:56.063                : Chapter 16
    01:45:57.934                : Chapter 17

  • Peso: 4.96 GiB

Sinopsis

Descargar Salida Francesa (2021) PLACEBO Full HD 1080p Latino. Una viuda de la alta sociedad de Manhattan se muda con lo poco que le queda de su herencia a un pequeño apartamento en París. Le acompañan su hijo y su gato, que según ella es su marido reencarnado.

Español Latino AC3 5.1 WebDL – Ingles DTS 5.1 Bluray

Ficha técnica

Video trailer de la película

Enlaces de descarga

Rip de Bluray

Descargar Salida Francesa (2021) PLACEBO Full HD 1080p Latino




Aportes de DPeliculasHDmega la pass es:dpeliculashdmega.org Aportes de CinemaniaHD la pass es:cinemaniahdd.com

Películas relacionadas

Salida Francesa (2021) PLACEBO Full HD 1080p Latino pelicula full hd, Salida Francesa (2021) PLACEBO Full HD 1080p Latino mega latino, Salida Francesa (2021) PLACEBO Full HD 1080p Latino 4k latino, Salida Francesa (2021) PLACEBO Full HD 1080p Latino pelicula completa, Salida Francesa (2021) PLACEBO Full HD 1080p Latino descargar gratis, descargar Salida Francesa (2021) PLACEBO Full HD 1080p Latino pelicula latino, Salida Francesa (2021) PLACEBO Full HD 1080p Latino 1 link mega, Salida Francesa (2021) PLACEBO Full HD 1080p Latino 1 link google drive, Salida Francesa (2021) PLACEBO Full HD 1080p Latino hd 1080p latino.
Comentarios 2
  • The Chingon - 05 julio, 2021

    hola…verificala problema de 2 a 7 minutos se detiene video y audio conteo continua,aveces error de video mosaicos….gracias

    • Melkor - 05 julio, 2021

      Ya la eh revisado y no encontre error alguno, incluso en un rango mas amplio; muy seguramente es error de tu lado puedes hacer screenshot?? pero antes revisa tu configuracion, reproductor, codecs, hardware o incluso que se haya descargado mal, saludos!!