Sala de espera al infierno (1988) Full 1080p Latino

531 vistas
1 estrella2 estrellas3 estrellas4 estrellas5 estrellas (Ninguna valoración todavía)
Cargando…

Información de Sala de espera al infierno (1988) Full 1080p Latino

Datos de la película

  • Calidad: Full 1080p
  • Audio: Español Latino AC3 2.0 BLURAY - Ingles AC3 5.1 BLURAY
  • Subtitulos: Español Latino PGS - Ingles PGS
  • Resolución: 1920x1080p
  • Formato: MKV
  • Codec: H.264
  • Encoder: Dracarys
  • Mediainfo: Clic para Mostrar Datos Ver
  • Format                                   : Matroska
    Format version                           : Version 4 / Version 2
    File size                                : 7.07 GiB
    Duration                                 : 1 h 31 min
    Overall bit rate                         : 11.1 Mb/s
    Movie name                               : CinemaniaHDD.net
    Encoded date                             : UTC 2018-11-27 18:14:40 / UTC 2018-11-25T00:07:39Z
    Writing application                      : mkvmerge v15.0.0 ('Duel with the Devil') 64-bit
    Writing library                          : libebml v1.3.5 + libmatroska v1.4.5 / Lavf57.7.2

    Video
    ID                                       : 1
    Format                                   : AVC
    Format/Info                              : Advanced Video Codec
    Format profile                           : High@L4.1
    Format settings                          : CABAC / 4 Ref Frames
    Format settings, CABAC                   : Yes
    Format settings, RefFrames               : 4 frames
    Codec ID                                 : V_MPEG4/ISO/AVC
    Duration                                 : 1 h 31 min
    Bit rate                                 : 10.0 Mb/s
    Width                                    : 1 920 pixels
    Height                                   : 1 080 pixels
    Display aspect ratio                     : 16:9
    Frame rate mode                          : Constant
    Frame rate                               : 23.976 (24000/1001) FPS
    Color space                              : YUV
    Chroma subsampling                       : 4:2:0
    Bit depth                                : 8 bits
    Scan type                                : Progressive
    Bits/(Pixel*Frame)                       : 0.202
    Stream size                              : 6.40 GiB (91%)
    Writing library                          : x264 core 148 r2708 86b7198
    Encoding settings                        : cabac=1 / ref=4 / deblock=1:0:0 / analyse=0x3:0x133 / me=esa / subme=10 / psy=1 / psy_rd=1.00:0.00 / mixed_ref=1 / me_range=24 / chroma_me=1 / trellis=2 / 8x8dct=1 / cqm=0 / deadzone=21,11 / fast_pskip=1 / chroma_qp_offset=-2 / threads=34 / lookahead_threads=5 / sliced_threads=0 / nr=0 / decimate=1 / interlaced=0 / bluray_compat=0 / constrained_intra=0 / bframes=8 / b_pyramid=2 / b_adapt=2 / b_bias=0 / direct=3 / weightb=1 / open_gop=0 / weightp=2 / keyint=240 / keyint_min=24 / scenecut=40 / intra_refresh=0 / rc_lookahead=60 / rc=crf / mbtree=1 / crf=20.0 / qcomp=0.60 / qpmin=0 / qpmax=69 / qpstep=4 / vbv_maxrate=62500 / vbv_bufsize=78125 / crf_max=0.0 / nal_hrd=none / filler=0 / ip_ratio=1.40 / aq=1:1.00
    Language                                 : English
    Default                                  : Yes
    Forced                                   : No
    Color range                              : Limited
    Color primaries                          : BT.709
    Transfer characteristics                 : BT.709
    Matrix coefficients                      : BT.709
    Statistics Tags Issue                    : mkvmerge v15.0.0 ('Duel with the Devil') 64-bit 2018-11-27 18:14:40 / mkvmerge v15.0.0 ('Duel with the Devil') 64-bit 2018-11-27 18:14:40 / UTC 2018-11-25T00:07:39Z
    FromStats_BitRate                        : 10235325
    FromStats_Duration                       : 01:31:13.135000000
    FromStats_FrameCount                     : 131224
    FromStats_StreamSize                     : 7002414462

    Audio #1
    ID                                       : 2
    Format                                   : AC-3
    Format/Info                              : Audio Coding 3
    Mode                                     : Dolby Digital
    Format settings, Endianness              : Big
    Codec ID                                 : A_AC3
    Duration                                 : 1 h 31 min
    Bit rate mode                            : Constant
    Bit rate                                 : 192 kb/s
    Channel(s)                               : 2 channels
    Channel positions                        : Front: L R
    Sampling rate                            : 48.0 kHz
    Frame rate                               : 31.250 FPS (1536 SPF)
    Bit depth                                : 16 bits
    Compression mode                         : Lossy
    Stream size                              : 125 MiB (2%)
    Language                                 : Spanish
    Service kind                             : Complete Main
    Default                                  : Yes
    Forced                                   : No
    Statistics Tags Issue                    : mkvmerge v15.0.0 ('Duel with the Devil') 64-bit 2018-11-27 18:14:40 / mkvmerge v15.0.0 ('Duel with the Devil') 64-bit 2018-11-27 18:14:40 / UTC 2018-11-25T00:07:39Z
    FromStats_BitRate                        : 192000
    FromStats_Duration                       : 01:31:13.152000000
    FromStats_FrameCount                     : 171036
    FromStats_StreamSize                     : 131355648

    Audio #2
    ID                                       : 3
    Format                                   : AC-3
    Format/Info                              : Audio Coding 3
    Format settings, Endianness              : Big
    Codec ID                                 : A_AC3
    Duration                                 : 1 h 31 min
    Bit rate mode                            : Constant
    Bit rate                                 : 640 kb/s
    Channel(s)                               : 6 channels
    Channel positions                        : Front: L C R, Side: L R, LFE
    Sampling rate                            : 48.0 kHz
    Frame rate                               : 31.250 FPS (1536 SPF)
    Bit depth                                : 16 bits
    Compression mode                         : Lossy
    Stream size                              : 418 MiB (6%)
    Language                                 : English
    Service kind                             : Complete Main
    Default                                  : No
    Forced                                   : No
    Statistics Tags Issue                    : mkvmerge v15.0.0 ('Duel with the Devil') 64-bit 2018-11-27 18:14:40 / mkvmerge v15.0.0 ('Duel with the Devil') 64-bit 2018-11-27 18:14:40 / UTC 2018-11-25T00:07:39Z
    FromStats_BitRate                        : 640000
    FromStats_Duration                       : 01:31:13.152000000
    FromStats_FrameCount                     : 171036
    FromStats_StreamSize                     : 437852160

    Text #1
    ID                                       : 4
    Format                                   : PGS
    Muxing mode                              : zlib
    Codec ID                                 : S_HDMV/PGS
    Codec ID/Info                            : Picture based subtitle format used on BDs/HD-DVDs
    Language                                 : English
    Default                                  : No
    Forced                                   : No
    Statistics Tags Issue                    : mkvmerge v15.0.0 ('Duel with the Devil') 64-bit 2018-11-27 18:14:40 / mkvmerge v15.0.0 ('Duel with the Devil') 64-bit 2018-11-27 18:14:40 / UTC 2018-11-25T00:07:39Z
    FromStats_BitRate                        : 31891
    FromStats_Duration                       : 01:29:27.111000000
    FromStats_FrameCount                     : 1775
    FromStats_StreamSize                     : 21395514

    Text #2
    ID                                       : 5
    Format                                   : PGS
    Muxing mode                              : zlib
    Codec ID                                 : S_HDMV/PGS
    Codec ID/Info                            : Picture based subtitle format used on BDs/HD-DVDs
    Language                                 : Spanish
    Default                                  : No
    Forced                                   : No
    Statistics Tags Issue                    : mkvmerge v15.0.0 ('Duel with the Devil') 64-bit 2018-11-27 18:14:40 / mkvmerge v15.0.0 ('Duel with the Devil') 64-bit 2018-11-27 18:14:40 / UTC 2018-11-25T00:07:39Z
    FromStats_BitRate                        : 33122
    FromStats_Duration                       : 01:30:25.086000000
    FromStats_FrameCount                     : 1803
    FromStats_StreamSize                     : 22461569

    Menu
    00:00:00.000                             : :Chapter 1
    00:04:46.787                             : :Chapter 2
    00:07:05.425                             : :Chapter 3
    00:10:04.437                             : :Chapter 4
    00:13:38.318                             : :Chapter 5
    00:16:21.147                             : :Chapter 6
    00:19:54.694                             : :Chapter 7
    00:21:45.805                             : :Chapter 8
    00:25:08.674                             : :Chapter 9
    00:27:00.452                             : :Chapter 10
    00:29:24.096                             : :Chapter 11
    00:31:44.236                             : :Chapter 12
    00:34:14.052                             : :Chapter 13
    00:38:57.836                             : :Chapter 14
    00:40:52.116                             : :Chapter 15
    00:42:04.022                             : :Chapter 16
    00:45:43.407                             : :Chapter 17
    00:47:29.513                             : :Chapter 18
    00:49:26.130                             : :Chapter 19
    00:51:58.449                             : :Chapter 20
    00:57:53.804                             : :Chapter 21
    01:00:45.809                             : :Chapter 22
    01:02:19.736                             : :Chapter 23
    01:07:02.185                             : :Chapter 24
    01:13:38.748                             : :Chapter 25
    01:15:09.171                             : :Chapter 26
    01:17:57.339                             : :Chapter 27
    01:19:49.785                             : :Chapter 28
    01:21:21.710                             : :Chapter 29
    01:25:07.269                             : :Chapter 30

     

  • Peso: 7.07 GiB

Sinopsis

Quinta y última entrega de la saga policiaca que nace con ‘Harry, el sucio’, protagonizada por el controvertido inspector de la policía de Los Ángeles, Harry Callahan. Una lista de ocho personas célebres circula por San Francisco y se están haciendo macabras apuestas, que consisten en adivinar quién de esas personas morirá primero. Uno de los nombres es el del famoso inspector Callahan, que investiga el caso.

Ficha técnica

Video trailer de la película

Enlaces de descarga

Rip de Bluray

Descargar Sala de espera al infierno (1988) Full 1080p Latino




Aportes de DPeliculasHDmega la pass es:dpeliculashdmega.org Aportes de CinemaniaHD la pass es:cinemaniahdd.com

Películas relacionadas

  • Matar o morir (2018) 1080p Subtitulado

    2018
    Matar o morir (2018) 1080p Subtitulado

    5.0 1h 41m 2018

    Descargar Matar o morir [Peppermint] (2018) 1080p Subtitulado, Mega, Google Drive. LRiley North (Jennifer...

    Director: Pierre Morel

    Género: Acción

    Actores: YaYa Gosselin

  • Ni en tus sueños (2010) Full 1080p Latino

    2010
    Ni en tus sueños (2010) Full 1080p Latino

    0.0 1h 44m 2010

    Descargar Ni en tus sueños (2010) Full 1080p Latino, Mega, Google Drive. Kirk (Jay Baruchel, "Tropic...

    Director: Richard L. Fox

    Género: Comedia

    Actores: Yan Xi

  • La Chica de La Capa Roja (2011) Full 1080p Latino

    2011
    La Chica de La Capa Roja (2011) Full 1080p Latino

    4.7 1h 40m 2011

    Descargar La Chica de La Capa Roja (2011) Full 1080p Latino, Mega, Google Drive. La joven Valerie se...

    Director: Kimi Webber

    Género: Fantasía

    Actores: Virginia Madsen

  • La Chica de La Capa Roja (2011) 1080p Latino

    2011
    La Chica de La Capa Roja (2011) 1080p Latino

    0.0 1h 40m 2011

    Descargar La Chica de La Capa Roja (2011) 1080p Latino, Mega, Google Drive. La joven Valerie se encuentra...

    Director: Kimi Webber

    Género: Fantasía

    Actores: Virginia Madsen

  • Soy el número cuatro (2011) 1080p Latino

    2011
    Soy el número cuatro (2011) 1080p Latino

    0.0 1h 42m 2011

    Descargar Soy el número cuatro (2011) 1080p Latino, Mega, Google Drive. Aunque tenga la apariencia de...

    Director: D.J. Caruso

    Género: Acción

    Actores: Zoe Simek

Comentarios 0