×

¿Problemas para descargar con Mozilla, EDGE? Deshabilita la opción "Abrir vinculos en una pestaña nueva" tal como lo muestra ésta imagen.

Saint X (2023) Primera Temporada Star+ WEB-DL 1080p Latino

222 vistas

Información de Saint X (2023) Primera Temporada Star+ WEB-DL 1080p Latino

Datos de la película

  • Calidad: 1080p
  • Audio: Español Latino AC3 5.1 WEB-DL - Ingles AC3 5.1 WEB-DL
  • Subtitulos: Español Latino SRT- FORZADOS SRT
  • Resolución: 1920x1080
  • Formato: MKV
  • Codec: H.264
  • Encoder: cinemaniahdd
  • Mediainfo: Clic para Mostrar Datos Ver
  • Saint X T01E01 Star+ WEB-DL 1080p Latino [CNMNHDD].mkv
    Format                      : Matroska
    Format version              : Version 4
    File size                   : 2.21 GiB
    Duration                    : 43 min 7 s
    Overall bit rate mode       : Variable
    Overall bit rate            : 7 321 kb/s
    Movie name                  : Saint X S01E01 - A Lovely Nowhere [1080p] - CinemaniaHDD.Net
    Encoded date                : UTC 2023-06-08 01:51:53
    Writing application         : mkvmerge v56.1.0 ('My Friend') 64-bit
    Writing library             : libebml v1.4.2 + libmatroska v1.6.4

    Video
    ID                          : 1
    Format                      : AVC
    Format/Info                 : Advanced Video Codec
    Format profile              : High@L4
    Format settings             : CABAC / 4 Ref Frames
    Format settings, CABAC      : Yes
    Format settings, Reference  : 4 frames
    Codec ID                    : V_MPEG4/ISO/AVC
    Duration                    : 43 min 7 s
    Bit rate mode               : Variable
    Bit rate                    : 6 422 kb/s
    Maximum bit rate            : 12.7 Mb/s
    Width                       : 1 920 pixels
    Height                      : 1 080 pixels
    Display aspect ratio        : 16:9
    Frame rate mode             : Constant
    Frame rate                  : 23.976 (24000/1001) FPS
    Color space                 : YUV
    Chroma subsampling          : 4:2:0
    Bit depth                   : 8 bits
    Scan type                   : Progressive
    Bits/(Pixel*Frame)          : 0.129
    Stream size                 : 1.93 GiB (88%)
    Title                       : CinemaniaHDD
    Default                     : Yes
    Forced                      : No
    Color range                 : Limited
    Color primaries             : BT.709
    Transfer characteristics    : BT.709
    Matrix coefficients         : BT.709

    Audio #1
    ID                          : 2
    Format                      : AC-3
    Format/Info                 : Audio Coding 3
    Commercial name             : Dolby Digital
    Codec ID                    : A_AC3
    Duration                    : 43 min 7 s
    Bit rate mode               : Constant
    Bit rate                    : 384 kb/s
    Channel(s)                  : 6 channels
    Channel layout              : L R C LFE Ls Rs
    Sampling rate               : 48.0 kHz
    Frame rate                  : 31.250 FPS (1536 SPF)
    Compression mode            : Lossy
    Stream size                 : 118 MiB (5%)
    Title                       : Español Latino [CinemaniaHDD]
    Language                    : Spanish
    Service kind                : Complete Main
    Default                     : Yes
    Forced                      : No

    Audio #2
    ID                          : 3
    Format                      : E-AC-3
    Format/Info                 : Enhanced AC-3
    Commercial name             : Dolby Digital Plus
    Codec ID                    : A_EAC3
    Duration                    : 43 min 7 s
    Bit rate mode               : Constant
    Bit rate                    : 256 kb/s
    Channel(s)                  : 6 channels
    Channel layout              : L R C LFE Ls Rs
    Sampling rate               : 48.0 kHz
    Frame rate                  : 31.250 FPS (1536 SPF)
    Compression mode            : Lossy
    Stream size                 : 79.0 MiB (3%)
    Title                       : Español latino / E-AC3 [CinemaniaHDD]
    Language                    : Spanish
    Service kind                : Complete Main
    Default                     : No
    Forced                      : No

    Audio #3
    ID                          : 4
    Format                      : E-AC-3
    Format/Info                 : Enhanced AC-3
    Commercial name             : Dolby Digital Plus
    Codec ID                    : A_EAC3
    Duration                    : 43 min 7 s
    Bit rate mode               : Constant
    Bit rate                    : 256 kb/s
    Channel(s)                  : 6 channels
    Channel layout              : L R C LFE Ls Rs
    Sampling rate               : 48.0 kHz
    Frame rate                  : 31.250 FPS (1536 SPF)
    Compression mode            : Lossy
    Stream size                 : 79.0 MiB (3%)
    Title                       : Inglés [CinemaniaHDD]
    Language                    : English
    Service kind                : Complete Main
    Default                     : No
    Forced                      : No

    Text #1
    ID                          : 5
    Format                      : UTF-8
    Codec ID                    : S_TEXT/UTF8
    Codec ID/Info               : UTF-8 Plain Text
    Duration                    : 27 min 6 s
    Bit rate                    : 1 b/s
    Count of elements           : 10
    Stream size                 : 298 Bytes (0%)
    Title                       : Forzados [CinemaniaHDD]
    Language                    : Spanish
    Default                     : Yes
    Forced                      : Yes

    Text #2
    ID                          : 6
    Format                      : UTF-8
    Codec ID                    : S_TEXT/UTF8
    Codec ID/Info               : UTF-8 Plain Text
    Duration                    : 42 min 43 s
    Bit rate                    : 55 b/s
    Count of elements           : 528
    Stream size                 : 17.4 KiB (0%)
    Title                       : Español Latino [CinemaniaHDD]
    Language                    : Spanish
    Default                     : No
    Forced                      : No

    Text #3
    ID                          : 7
    Format                      : UTF-8
    Codec ID                    : S_TEXT/UTF8
    Codec ID/Info               : UTF-8 Plain Text
    Duration                    : 43 min 4 s
    Bit rate                    : 79 b/s
    Count of elements           : 890
    Stream size                 : 25.0 KiB (0%)
    Title                       : Inglés [CinemaniaHDD]
    Language                    : English
    Default                     : No
    Forced                      : No

     

  • Peso: 2.21 GiB Aprox ---- 19 GiB in 8 Chapters.

Sinopsis

La serie, que se cuenta a través de múltiples líneas de tiempo, explora y da un vuelco al género de historias sobre chicas desaparecidas mientras explora cómo la misteriosa muerte de una joven durante unas idílicas vacaciones en el Caribe crea un efecto dominó traumático que eventualmente empuja a su hermana sobreviviente a una peligrosa búsqueda de la verdad.

Ficha técnica

Video trailer de la película

Enlaces de descarga

Rip de Bluray

Descargar Saint X (2023) Primera Temporada Star+ WEB-DL 1080p Latino




Aportes de DPeliculasHDmega la pass es:dpeliculashdmega.org Aportes de CinemaniaHD la pass es:cinemaniahdd.com Aportes recientes:cinemaniahdd.net
Guardado en : Crimen , Drama , Misterio , Series

Películas relacionadas

descargar Saint X (2023) Primera Temporada Star+ WEB-DL 1080p Latino 1080p 1080p gratis, Saint X (2023) Primera Temporada Star+ WEB-DL 1080p Latino 1080p mega 1 link, Saint X (2023) Primera Temporada Star+ WEB-DL 1080p Latino 1080p serie completa, descargar Saint X (2023) Primera Temporada Star+ WEB-DL 1080p Latino 1080p gratis en mega.

Saint X (2023) Primera Temporada Star+ WEB-DL 1080p Latino pelicula full hd, Saint X (2023) Primera Temporada Star+ WEB-DL 1080p Latino mega latino, Saint X (2023) Primera Temporada Star+ WEB-DL 1080p Latino 4k latino, Saint X (2023) Primera Temporada Star+ WEB-DL 1080p Latino pelicula completa, Saint X (2023) Primera Temporada Star+ WEB-DL 1080p Latino descargar gratis, descargar Saint X (2023) Primera Temporada Star+ WEB-DL 1080p Latino pelicula latino, Saint X (2023) Primera Temporada Star+ WEB-DL 1080p Latino 1 link mega, Saint X (2023) Primera Temporada Star+ WEB-DL 1080p Latino 1 link google drive, Saint X (2023) Primera Temporada Star+ WEB-DL 1080p Latino hd 1080p latino.
Comentarios 0