×

¿Problemas para descargar con Mozilla, EDGE? Deshabilita la opción "Abrir vinculos en una pestaña nueva" tal como lo muestra ésta imagen.

Saint Seiya: Los Caballeros del Zodiaco (2019) Temporada 1 NF 1080p Latino

2.643 vistas

Información de Saint Seiya: Los Caballeros del Zodiaco (2019) Temporada 1 NF 1080p Latino

sain

Datos de la película

  • Calidad: WEBDL
  • Audio: Español Latino E-AC3 5.1 Netflix - Japones E-AC3 5.1 Netflix
  • Subtitulos: Español Latino SRT- FORZADOS SRT
  • Resolución: 1920x1080
  • Formato: MKV
  • Codec: H.264
  • Encoder: Chesse92
  • Mediainfo: Clic para Mostrar Datos Ver
  • SAINT SEIYA Knights of.the Zodiac S01E01 NF 1080p Latino.mkv
    Format                      : Matroska
    Format version              : Version 4
    File size                   : 1.32 GiB
    Duration                    : 23 min 35 s
    Overall bit rate mode       : Variable
    Overall bit rate            : 8 004 kb/s
    Movie name                  : SAINT SEIYA Knights of.the Zodiac S01E01 NF 1080p Latino
    Encoded date                : UTC 2019-07-21 00:37:26
    Writing application         : mkvmerge v35.0.0 ('All The Love In The World') 64-bit
    Writing library             : libebml v1.3.9 + libmatroska v1.5.2

    Video
    ID                          : 1
    Format                      : AVC
    Format/Info                 : Advanced Video Codec
    Format profile              : Main@L4
    Format settings             : CABAC / 3 Ref Frames
    Format settings, CABAC      : Yes
    Format settings, ReFrames   : 3 frames
    Codec ID                    : V_MPEG4/ISO/AVC
    Duration                    : 23 min 35 s
    Bit rate mode               : Variable
    Bit rate                    : 6 810 kb/s
    Maximum bit rate            : 10.2 Mb/s
    Width                       : 1 920 pixels
    Height                      : 1 080 pixels
    Display aspect ratio        : 16:9
    Frame rate mode             : Constant
    Frame rate                  : 23.976 (24000/1001) FPS
    Color space                 : YUV
    Chroma subsampling          : 4:2:0
    Bit depth                   : 8 bits
    Scan type                   : Progressive
    Bits/(Pixel*Frame)          : 0.137
    Stream size                 : 1.11 GiB (84%)
    Title                       : CinemaniaHDD
    Writing library             : x264 core 148 r2715 7e75228
    Encoding settings           : cabac=1 / ref=3 / deblock=1:0:0 / analyse=0x1:0x111 / me=umh / subme=10 / psy=1 / psy_rd=1.00:0.00 / mixed_ref=1 / me_range=24 / chroma_me=1 / trellis=2 / 8x8dct=0 / cqm=0 / deadzone=21,11 / fast_pskip=1 / chroma_qp_offset=-2 / threads=6 / lookahead_threads=1 / sliced_threads=0 / nr=0 / decimate=1 / interlaced=0 / bluray_compat=0 / stitchable=1 / constrained_intra=0 / bframes=2 / b_pyramid=0 / b_adapt=2 / b_bias=0 / direct=3 / weightb=1 / open_gop=0 / weightp=2 / keyint=48 / keyint_min=25 / scenecut=0 / intra_refresh=0 / rc_lookahead=48 / rc=2pass / mbtree=1 / bitrate=6810 / ratetol=1.0 / qcomp=0.50 / qpmin=6 / qpmax=51 / qpstep=4 / cplxblur=20.0 / qblur=0.5 / vbv_maxrate=10215 / vbv_bufsize=13620 / nal_hrd=vbr / filler=0 / ip_ratio=1.40 / aq=1:1.00
    Default                     : Yes
    Forced                      : No

    Audio #1
    ID                          : 2
    Format                      : E-AC-3
    Format/Info                 : Enhanced AC-3
    Commercial name             : Dolby Digital Plus
    Codec ID                    : A_EAC3
    Duration                    : 23 min 35 s
    Bit rate mode               : Constant
    Bit rate                    : 640 kb/s
    Channel(s)                  : 6 channels
    Channel layout              : L R C LFE Ls Rs
    Sampling rate               : 48.0 kHz
    Frame rate                  : 31.250 FPS (1536 SPF)
    Compression mode            : Lossy
    Stream size                 : 108 MiB (8%)
    Title                       : Español latino [CinemaniaHDD]
    Language                    : Spanish
    Service kind                : Complete Main
    Default                     : No
    Forced                      : No

    Audio #2
    ID                          : 3
    Format                      : E-AC-3
    Format/Info                 : Enhanced AC-3
    Commercial name             : Dolby Digital Plus
    Codec ID                    : A_EAC3
    Duration                    : 23 min 35 s
    Bit rate mode               : Constant
    Bit rate                    : 640 kb/s
    Channel(s)                  : 6 channels
    Channel layout              : L R C LFE Ls Rs
    Sampling rate               : 48.0 kHz
    Frame rate                  : 31.250 FPS (1536 SPF)
    Compression mode            : Lossy
    Stream size                 : 108 MiB (8%)
    Title                       : Inglés [CinemaniaHDD]
    Language                    : English
    Service kind                : Complete Main
    Default                     : Yes
    Forced                      : No

    Text #1
    ID                          : 4
    Format                      : UTF-8
    Codec ID                    : S_TEXT/UTF8
    Codec ID/Info               : UTF-8 Plain Text
    Duration                    : 23 min 3 s
    Bit rate                    : 59 b/s
    Count of elements           : 302
    Stream size                 : 10.1 KiB (0%)
    Title                       : Forzados [CinemaniaHDD]
    Language                    : Spanish
    Default                     : Yes
    Forced                      : No

    Text #2
    ID                          : 5
    Format                      : UTF-8
    Codec ID                    : S_TEXT/UTF8
    Codec ID/Info               : UTF-8 Plain Text
    Duration                    : 23 min 3 s
    Bit rate                    : 0 b/s
    Count of elements           : 4
    Stream size                 : 102 Bytes (0%)
    Title                       : Español latino [CinemaniaHDD]
    Language                    : Spanish
    Default                     : No
    Forced                      : No

  • Peso: 1.3 GB POR CAP/ 8 GB TOTAL

Sinopsis

Seiya y los Caballeros del Zodiaco se unen para proteger la la reencarnación de la diosa Atenea, pero una oscura profecía les amenaza.

Ficha técnica

Video trailer de la película

Enlaces de descarga

Rip de Bluray

Descargar Saint Seiya: Los Caballeros del Zodiaco (2019) Temporada 1 NF 1080p Latino




Aportes de DPeliculasHDmega la pass es:dpeliculashdmega.org Aportes de CinemaniaHD la pass es:cinemaniahdd.com Aportes recientes:cinemaniahdd.net

Películas relacionadas

descargar Saint Seiya: Los Caballeros del Zodiaco (2019) Temporada 1 NF 1080p Latino WEBDL 1080p gratis, Saint Seiya: Los Caballeros del Zodiaco (2019) Temporada 1 NF 1080p Latino WEBDL mega 1 link, Saint Seiya: Los Caballeros del Zodiaco (2019) Temporada 1 NF 1080p Latino WEBDL serie completa, descargar Saint Seiya: Los Caballeros del Zodiaco (2019) Temporada 1 NF 1080p Latino WEBDL gratis en mega.

Saint Seiya: Los Caballeros del Zodiaco (2019) Temporada 1 NF 1080p Latino pelicula full hd, Saint Seiya: Los Caballeros del Zodiaco (2019) Temporada 1 NF 1080p Latino mega latino, Saint Seiya: Los Caballeros del Zodiaco (2019) Temporada 1 NF 1080p Latino 4k latino, Saint Seiya: Los Caballeros del Zodiaco (2019) Temporada 1 NF 1080p Latino pelicula completa, Saint Seiya: Los Caballeros del Zodiaco (2019) Temporada 1 NF 1080p Latino descargar gratis, descargar Saint Seiya: Los Caballeros del Zodiaco (2019) Temporada 1 NF 1080p Latino pelicula latino, Saint Seiya: Los Caballeros del Zodiaco (2019) Temporada 1 NF 1080p Latino 1 link mega, Saint Seiya: Los Caballeros del Zodiaco (2019) Temporada 1 NF 1080p Latino 1 link google drive, Saint Seiya: Los Caballeros del Zodiaco (2019) Temporada 1 NF 1080p Latino hd 1080p latino.
Comentarios 0