×

¿Problemas para descargar con Mozilla, EDGE? Deshabilita la opción "Abrir vinculos en una pestaña nueva" tal como lo muestra ésta imagen.

Sagrada familia (2022) Temporada 1 NF WEB-DL 1080p Cast

41 vistas

Información de Sagrada familia (2022) Temporada 1 NF WEB-DL 1080p Cast

Datos de la película

  • Calidad: WEBDL
  • Audio: Español España AC3 5.1 Netflix
  • Subtitulos: No
  • Resolución: 1920x1080p
  • Formato: MKV
  • Codec: H.264
  • Encoder: Melkor
  • Mediainfo: Clic para Mostrar Datos Ver
  • Sagrada familia S01E01 (2022) NF WEB-DL 1080p Cast.mkv
    Format                      : Matroska
    Format version              : Version 4
    File size                   : 1.63 GiB
    Duration                    : 39 min 6 s
    Overall bit rate mode       : Variable
    Overall bit rate            : 5 958 kb/s
    Movie name                  : Sagrada familia S01E01 CinemaniaHDD.Net
    Encoded date                : UTC 2022-10-18 02:02:19
    Writing application         : mkvmerge v59.0.0 ('Shining Star') 64-bit
    Writing library             : libebml v1.4.2 + libmatroska v1.6.4
    Attachments                 : CINEMANIAHD.png

    Video
    ID                          : 1
    Format                      : AVC
    Format/Info                 : Advanced Video Codec
    Format profile              : High@L4
    Format settings             : CABAC / 4 Ref Frames
    Format settings, CABAC      : Yes
    Format settings, Reference  : 4 frames
    Codec ID                    : V_MPEG4/ISO/AVC
    Duration                    : 39 min 5 s
    Bit rate mode               : Variable
    Bit rate                    : 5 189 kb/s
    Maximum bit rate            : 20.0 Mb/s
    Width                       : 1 920 pixels
    Height                      : 1 080 pixels
    Display aspect ratio        : 16:9
    Frame rate mode             : Constant
    Frame rate                  : 25.000 FPS
    Color space                 : YUV
    Chroma subsampling          : 4:2:0
    Bit depth                   : 8 bits
    Scan type                   : Progressive
    Bits/(Pixel*Frame)          : 0.100
    Stream size                 : 1.42 GiB (87%)
    Title                       : WEB HD1080p [CinemaniaHDD]
    Writing library             : x264 core 148 r2727 7d026e8
    Encoding settings           : cabac=1 / ref=4 / deblock=1:0:0 / analyse=0x3:0x111 / me=umh / subme=10 / psy=1 / psy_rd=1.00:0.00 / mixed_ref=1 / me_range=120 / chroma_me=1 / trellis=2 / 8x8dct=1 / cqm=0 / deadzone=21,11 / fast_pskip=1 / chroma_qp_offset=-2 / threads=8 / lookahead_threads=2 / sliced_threads=0 / nr=0 / decimate=1 / interlaced=0 / bluray_compat=0 / stitchable=1 / constrained_intra=0 / bframes=16 / b_pyramid=2 / b_adapt=2 / b_bias=0 / direct=3 / weightb=1 / open_gop=0 / weightp=2 / keyint=250 / keyint_min=126 / scenecut=0 / intra_refresh=0 / rc_lookahead=250 / rc=crf / mbtree=1 / crf=16.0 / qcomp=0.50 / qpmin=6 / qpmax=51 / qpstep=4 / vbv_maxrate=20000 / vbv_bufsize=25000 / crf_max=0.0 / nal_hrd=vbr / filler=0 / ip_ratio=1.40 / aq=1:0.80
    Default                     : Yes
    Forced                      : Yes

    Audio
    ID                          : 2
    Format                      : E-AC-3 JOC
    Format/Info                 : Enhanced AC-3 with Joint Object Coding
    Commercial name             : Dolby Digital Plus with Dolby Atmos
    Codec ID                    : A_EAC3
    Duration                    : 39 min 6 s
    Bit rate mode               : Constant
    Bit rate                    : 768 kb/s
    Channel(s)                  : 6 channels
    Channel layout              : L R C LFE Ls Rs
    Sampling rate               : 48.0 kHz
    Frame rate                  : 31.250 FPS (1536 SPF)
    Compression mode            : Lossy
    Stream size                 : 215 MiB (13%)
    Title                       : Español Castellano [CinemaniaHDD]
    Language                    : Spanish
    Service kind                : Complete Main
    Default                     : Yes
    Forced                      : Yes
    Complexity index            : 16
    Number of dynamic objects   : 15
    Bed channel count           : 1 channel
    Bed channel configuration   : LFE

  • Peso: 1.60 GiB Aprox. C/U -- 13 GiB -- 8 Chapters

Sinopsis

Descargar Sagrada familia (2022) Temporada 1 NF WEB-DL 1080p Cast. La mudanza de una nueva familia a Fuente del Berro romperá la estabilidad de un barrio donde vive Gloria junto a su bebé y Aitana, su au-pair, escondiéndose de un misterioso y oscuro pasado. En un barrio en el que nada es lo que parece, cuatro vecinas forjarán una fuerte amistad con un denominador común, son madres. Su relación parece perfecta, hasta que el pasado de Gloria lo cambia todo. Es entonces cuando descubriremos de lo que es capaz una madre para proteger a su familia, lo más sagrado que tiene.

Ficha técnica

Video trailer de la película

Enlaces de descarga

Rip de Bluray

Descargar Sagrada familia (2022) Temporada 1 NF WEB-DL 1080p Cast




Aportes de DPeliculasHDmega la pass es:dpeliculashdmega.org Aportes de CinemaniaHD la pass es:cinemaniahdd.com
Guardado en : Drama , Netflix , Series

Películas relacionadas

descargar Sagrada familia (2022) Temporada 1 NF WEB-DL 1080p Cast WEBDL 1080p gratis, Sagrada familia (2022) Temporada 1 NF WEB-DL 1080p Cast WEBDL mega 1 link, Sagrada familia (2022) Temporada 1 NF WEB-DL 1080p Cast WEBDL serie completa, descargar Sagrada familia (2022) Temporada 1 NF WEB-DL 1080p Cast WEBDL gratis en mega.

Sagrada familia (2022) Temporada 1 NF WEB-DL 1080p Cast pelicula full hd, Sagrada familia (2022) Temporada 1 NF WEB-DL 1080p Cast mega latino, Sagrada familia (2022) Temporada 1 NF WEB-DL 1080p Cast 4k latino, Sagrada familia (2022) Temporada 1 NF WEB-DL 1080p Cast pelicula completa, Sagrada familia (2022) Temporada 1 NF WEB-DL 1080p Cast descargar gratis, descargar Sagrada familia (2022) Temporada 1 NF WEB-DL 1080p Cast pelicula latino, Sagrada familia (2022) Temporada 1 NF WEB-DL 1080p Cast 1 link mega, Sagrada familia (2022) Temporada 1 NF WEB-DL 1080p Cast 1 link google drive, Sagrada familia (2022) Temporada 1 NF WEB-DL 1080p Cast hd 1080p latino.
Comentarios 0