×

¿Problemas para descargar con Mozilla, EDGE? Deshabilita la opción "Abrir vinculos en una pestaña nueva" tal como lo muestra ésta imagen.

Safe House (2012) REMUX 1080p Latino – CMHDD

152 vistas

Información de Safe House (2012) REMUX 1080p Latino – CMHDD

Datos de la película

  • Calidad: Full 1080p
  • Audio: Español Latino DTS 5.1 BLURAY - Ingles DTS 5.1 BLURAY
  • Subtitulos: Español Latino PGS
  • Resolución: 19201080p
  • Formato: MKV
  • Codec: H.264
  • Encoder: Dracarys
  • Mediainfo: Clic para Mostrar Datos Ver
  • Format                      : Matroska
    Format version              : Version 4
    File size                   : 29.4 GiB
    Duration                    : 1 h 54 min
    Overall bit rate mode       : Variable
    Overall bit rate            : 36.7 Mb/s
    Movie name                  : Safe House (2012) REMUX 1080p Latino - CMHDD
    Encoded date                : UTC 2023-10-03 03:09:55
    Writing application         : mkvmerge v47.0.0 ('Black Flag') 64-bit
    Writing library             : libebml v1.3.10 + libmatroska v1.5.2
    Cover                       : Yes
    Attachments                 : cover.jpg

    Video
    ID                          : 1
    ID in the original source m : 4113 (0x1011)
    Format                      : AVC
    Format/Info                 : Advanced Video Codec
    Format profile              : High@L4.1
    Format settings             : CABAC / 4 Ref Frames
    Format settings, CABAC      : Yes
    Format settings, Reference  : 4 frames
    Format settings, GOP        : M=3, N=12
    Codec ID                    : V_MPEG4/ISO/AVC
    Duration                    : 1 h 54 min
    Bit rate mode               : Variable
    Bit rate                    : 32.1 Mb/s
    Maximum bit rate            : 35.0 Mb/s
    Width                       : 1 920 pixels
    Height                      : 1 080 pixels
    Display aspect ratio        : 16:9
    Frame rate mode             : Constant
    Frame rate                  : 23.976 (24000/1001) FPS
    Color space                 : YUV
    Chroma subsampling          : 4:2:0
    Bit depth                   : 8 bits
    Scan type                   : Progressive
    Bits/(Pixel*Frame)          : 0.645
    Stream size                 : 25.8 GiB (87%)
    Default                     : Yes
    Forced                      : No
    Original source medium      : Blu-ray

    Audio #1
    ID                          : 2
    ID in the original source m : 4352 (0x1100)
    Format                      : DTS XLL
    Format/Info                 : Digital Theater Systems
    Commercial name             : DTS-HD Master Audio
    Codec ID                    : A_DTS
    Duration                    : 1 h 54 min
    Bit rate mode               : Variable
    Bit rate                    : 3 819 kb/s
    Channel(s)                  : 6 channels
    Channel layout              : C L R Ls Rs LFE
    Sampling rate               : 48.0 kHz
    Frame rate                  : 93.750 FPS (512 SPF)
    Bit depth                   : 24 bits
    Compression mode            : Lossless
    Stream size                 : 3.06 GiB (10%)
    Language                    : English
    Default                     : No
    Forced                      : No
    Original source medium      : Blu-ray

    Audio #2
    ID                          : 3
    ID in the original source m : 4353 (0x1101)
    Format                      : DTS
    Format/Info                 : Digital Theater Systems
    Codec ID                    : A_DTS
    Duration                    : 1 h 54 min
    Bit rate mode               : Constant
    Bit rate                    : 768 kb/s
    Channel(s)                  : 6 channels
    Channel layout              : C L R Ls Rs LFE
    Sampling rate               : 48.0 kHz
    Frame rate                  : 93.750 FPS (512 SPF)
    Bit depth                   : 24 bits
    Compression mode            : Lossy
    Stream size                 : 631 MiB (2%)
    Language                    : Spanish
    Default                     : Yes
    Forced                      : No
    Original source medium      : Blu-ray

    Text #1
    ID                          : 4
    ID in the original source m : 4609 (0x1201)
    Format                      : PGS
    Muxing mode                 : zlib
    Codec ID                    : S_HDMV/PGS
    Codec ID/Info               : Picture based subtitle format used on BDs/HD-DVDs
    Duration                    : 1 h 47 min
    Bit rate                    : 22.8 kb/s
    Frame rate                  : 0.318 FPS
    Count of elements           : 2044
    Stream size                 : 17.5 MiB (0%)
    Language                    : Spanish
    Default                     : No
    Forced                      : No
    Original source medium      : Blu-ray

    Text #2
    ID                          : 5
    ID in the original source m : 4611 (0x1203)
    Format                      : PGS
    Muxing mode                 : zlib
    Codec ID                    : S_HDMV/PGS
    Codec ID/Info               : Picture based subtitle format used on BDs/HD-DVDs
    Duration                    : 1 h 2 min
    Bit rate                    : 639 b/s
    Frame rate                  : 0.006 FPS
    Count of elements           : 22
    Stream size                 : 294 KiB (0%)
    Language                    : Spanish
    Default                     : Yes
    Forced                      : No
    Original source medium      : Blu-ray

    Menu
    00:00:00.000                : en:Capítulo 01
    00:04:52.000                : en:Capítulo 02
    00:13:44.615                : en:Capítulo 03
    00:18:44.456                : en:Capítulo 04
    00:23:58.228                : en:Capítulo 05
    00:29:26.931                : en:Capítulo 06
    00:37:19.987                : en:Capítulo 07
    00:41:23.981                : en:Capítulo 08
    00:48:29.031                : en:Capítulo 09
    00:56:48.780                : en:Capítulo 10
    01:00:53.983                : en:Capítulo 11
    01:07:02.309                : en:Capítulo 12
    01:11:17.982                : en:Capítulo 13
    01:16:25.581                : en:Capítulo 14
    01:21:23.128                : en:Capítulo 15
    01:26:14.002                : en:Capítulo 16
    01:29:25.109                : en:Capítulo 17
    01:35:34.478                : en:Capítulo 18
    01:44:25.217                : en:Capítulo 19
    01:49:44.202                : en:Capítulo 20

     

  • Peso: 29.4 GiB

Sinopsis

Matt Weston lleva un año en Ciudad del Cabo trabajando como “guardián” de un piso franco. Aspira a convertirse en un agente respetado en la CIA, y se siente frustrado al no haber sido destinado a un puesto con más acción. Pero cuando el primer huésped del piso resulta ser el peligroso Tobin Frost, Weston se prepara para lo peor. Frost, antaño uno de los mejores agentes encubiertos que tuvo la CIA, ha conseguido escapar de sus perseguidores durante casi una década, tiempo que ha dedicado a vender secretos militares al mejor postor. Tan pronto como Frost llega para ser interrogado, aparecen unos mercenarios que arrasan el piso franco de Weston. Los dos consiguen escapar por los pelos, y ahora tendrán que descubrir si sus atacantes fueron enviados por terroristas o por alguien de dentro dispuesto a matar a cualquiera que se interponga en su camino.

Ficha técnica

Video trailer de la película

Enlaces de descarga

Rip de Bluray

Descargar Safe House (2012) REMUX 1080p Latino – CMHDD




Aportes de DPeliculasHDmega la pass es:dpeliculashdmega.org Aportes de CinemaniaHD la pass es:cinemaniahdd.com Aportes recientes:cinemaniahdd.net
Guardado en : Acción , Suspenso

Películas relacionadas

descargar Safe House (2012) REMUX 1080p Latino – CMHDD Full 1080p 1080p gratis, Safe House (2012) REMUX 1080p Latino – CMHDD Full 1080p mega 1 link, Safe House (2012) REMUX 1080p Latino – CMHDD Full 1080p pelicula completa, descargar Safe House (2012) REMUX 1080p Latino – CMHDD Full 1080p gratis en mega.

Safe House (2012) REMUX 1080p Latino – CMHDD pelicula full hd, Safe House (2012) REMUX 1080p Latino – CMHDD mega latino, Safe House (2012) REMUX 1080p Latino – CMHDD 4k latino, Safe House (2012) REMUX 1080p Latino – CMHDD pelicula completa, Safe House (2012) REMUX 1080p Latino – CMHDD descargar gratis, descargar Safe House (2012) REMUX 1080p Latino – CMHDD pelicula latino, Safe House (2012) REMUX 1080p Latino – CMHDD 1 link mega, Safe House (2012) REMUX 1080p Latino – CMHDD 1 link google drive, Safe House (2012) REMUX 1080p Latino – CMHDD hd 1080p latino.
Comentarios 0