×

¿Problemas para descargar con Mozilla, EDGE? Deshabilita la opción "Abrir vinculos en una pestaña nueva" tal como lo muestra ésta imagen.

S.W.A.T. (2020) Cuartra Temporada WEB-DL 1080p Latino

420 vistas

Información de S.W.A.T. (2020) Cuartra Temporada WEB-DL 1080p Latino

Datos de la película

  • Calidad: 1080p
  • Audio: Español Latino AC3 2.0 WEB-DL - Ingles AC3 5.1 WEB-DL
  • Subtitulos: Español Latino SRT
  • Resolución: 1920x1080
  • Formato: MKV
  • Codec: H.264
  • Encoder: cinemaniahdd
  • Mediainfo: Clic para Mostrar Datos Ver
  • S.W.A.T T04E01 WEB-DL 1080p Latino [CNMNHDD].mkv
    Format                      : Matroska
    Format version              : Version 4
    File size                   : 2.29 GiB
    Duration                    : 42 min 34 s
    Overall bit rate mode       : Variable
    Overall bit rate            : 7 712 kb/s
    Movie name                  : S.W.A.T. S04E01 [1080p]
    Encoded date                : UTC 2022-04-24 02:38:43
    Writing application         : mkvmerge v59.0.0 ('Shining Star') 64-bit
    Writing library             : libebml v1.4.2 + libmatroska v1.6.4

    Video
    ID                          : 1
    Format                      : AVC
    Format/Info                 : Advanced Video Codec
    Format profile              : High@L4
    Format settings             : CABAC / 4 Ref Frames
    Format settings, CABAC      : Yes
    Format settings, Reference  : 4 frames
    Codec ID                    : V_MPEG4/ISO/AVC
    Duration                    : 42 min 34 s
    Bit rate mode               : Variable
    Bit rate                    : 7 327 kb/s
    Maximum bit rate            : 12.7 Mb/s
    Width                       : 1 920 pixels
    Height                      : 1 080 pixels
    Display aspect ratio        : 16:9
    Frame rate mode             : Constant
    Frame rate                  : 23.976 (24000/1001) FPS
    Color space                 : YUV
    Chroma subsampling          : 4:2:0
    Bit depth                   : 8 bits
    Scan type                   : Progressive
    Bits/(Pixel*Frame)          : 0.147
    Stream size                 : 2.18 GiB (95%)
    Title                       : CinemaniaHDD
    Default                     : Yes
    Forced                      : No
    Color range                 : Limited
    Color primaries             : BT.709
    Transfer characteristics    : BT.709
    Matrix coefficients         : BT.709

    Audio #1
    ID                          : 2
    Format                      : AAC LC
    Format/Info                 : Advanced Audio Codec Low Complexity
    Codec ID                    : A_AAC-2
    Duration                    : 42 min 32 s
    Bit rate                    : 125 kb/s
    Channel(s)                  : 2 channels
    Channel layout              : L R
    Sampling rate               : 48.0 kHz
    Frame rate                  : 46.875 FPS (1024 SPF)
    Compression mode            : Lossy
    Stream size                 : 38.1 MiB (2%)
    Title                       : Español latino [CinemaniaHDD]
    Language                    : Spanish
    Default                     : No
    Forced                      : No

    Audio #2
    ID                          : 3
    Format                      : E-AC-3
    Format/Info                 : Enhanced AC-3
    Commercial name             : Dolby Digital Plus
    Codec ID                    : A_EAC3
    Duration                    : 42 min 32 s
    Bit rate mode               : Constant
    Bit rate                    : 256 kb/s
    Channel(s)                  : 6 channels
    Channel layout              : L R C LFE Ls Rs
    Sampling rate               : 48.0 kHz
    Frame rate                  : 31.250 FPS (1536 SPF)
    Compression mode            : Lossy
    Stream size                 : 77.9 MiB (3%)
    Title                       : Inglés [CinemaniaHDD]
    Language                    : English
    Service kind                : Complete Main
    Default                     : No
    Forced                      : No

    Text #1
    ID                          : 4
    Format                      : UTF-8
    Codec ID                    : S_TEXT/UTF8
    Codec ID/Info               : UTF-8 Plain Text
    Duration                    : 42 min 7 s
    Bit rate                    : 92 b/s
    Count of elements           : 831
    Stream size                 : 28.5 KiB (0%)
    Title                       : Español latino [CinemaniaHDD]
    Language                    : Spanish
    Default                     : No
    Forced                      : No

    Text #2
    ID                          : 5
    Format                      : UTF-8
    Codec ID                    : S_TEXT/UTF8
    Codec ID/Info               : UTF-8 Plain Text
    Duration                    : 42 min 31 s
    Bit rate                    : 91 b/s
    Count of elements           : 761
    Stream size                 : 28.5 KiB (0%)
    Title                       : Portugues [CinemaniaHDD]
    Language                    : Portuguese
    Default                     : No
    Forced                      : No

     

  • Peso: 2.29 GiB Aprox ---- 42 GiB in 18 Chapters.

Sinopsis

Esta serie da una mirada realista y sensible a los valientes miembros de la unidad de élite de Armas y Tácticas Especiales del Departamento de Policía de Los Ángeles. Daniel “Hondo” Harrelson tiene la misión de dirigir esta unidad de táctica especializada, la cual es el último paso en la aplicación de la ley en Los Ángeles. Dividido entre la lealtad al lugar donde se crio y la lealtad a sus hermanos de azul, el exmarine Harrelson lo tiene todo para ser un excelente líder y resolver las diferencias entre sus dos mundos.

Ficha técnica

Video trailer de la película

Enlaces de descarga

Rip de Bluray

Descargar S.W.A.T. (2020) Cuartra Temporada WEB-DL 1080p Latino




Aportes de DPeliculasHDmega la pass es:dpeliculashdmega.org Aportes de CinemaniaHD la pass es:cinemaniahdd.com
Guardado en : Action & Adventure , Crimen , Drama , Series

Películas relacionadas

descargar S.W.A.T. (2020) Cuartra Temporada WEB-DL 1080p Latino 1080p 1080p gratis, S.W.A.T. (2020) Cuartra Temporada WEB-DL 1080p Latino 1080p mega 1 link, S.W.A.T. (2020) Cuartra Temporada WEB-DL 1080p Latino 1080p serie completa, descargar S.W.A.T. (2020) Cuartra Temporada WEB-DL 1080p Latino 1080p gratis en mega.

S.W.A.T. (2020) Cuartra Temporada WEB-DL 1080p Latino pelicula full hd, S.W.A.T. (2020) Cuartra Temporada WEB-DL 1080p Latino mega latino, S.W.A.T. (2020) Cuartra Temporada WEB-DL 1080p Latino 4k latino, S.W.A.T. (2020) Cuartra Temporada WEB-DL 1080p Latino pelicula completa, S.W.A.T. (2020) Cuartra Temporada WEB-DL 1080p Latino descargar gratis, descargar S.W.A.T. (2020) Cuartra Temporada WEB-DL 1080p Latino pelicula latino, S.W.A.T. (2020) Cuartra Temporada WEB-DL 1080p Latino 1 link mega, S.W.A.T. (2020) Cuartra Temporada WEB-DL 1080p Latino 1 link google drive, S.W.A.T. (2020) Cuartra Temporada WEB-DL 1080p Latino hd 1080p latino.
Comentarios 0