×

¿Problemas para descargar con Mozilla, EDGE? Deshabilita la opción "Abrir vinculos en una pestaña nueva" tal como lo muestra ésta imagen.

Rust Creek (2018) Full HD 1080p latino

2.199 vistas

Información de Rust Creek (2018) Full HD 1080p latino

rust creek 54556 poster

Datos de la película

  • Calidad: Full 1080p
  • Audio: Se especifica abajo de la Sinopsis
  • Subtitulos: Español Latino PGS - Ingles PGS
  • Resolución: 1920x1080p
  • Formato: MKV
  • Codec: H.264
  • Encoder: CinefiloCool
  • Mediainfo: Clic para Mostrar Datos Ver
  • Rust Creek (2018) Full HD 1080p Latino-CMHDD.mkv
    Format                      : Matroska
    Format version              : Version 4
    File size                   : 4.79 GiB
    Duration                    : 1 h 48 min
    Overall bit rate            : 6 336 kb/s
    Movie name                  : CinemaniaHDD.Net
    Encoded date                : UTC 2019-09-11 04:00:09
    Writing application         : mkvmerge v35.0.0 ('All The Love In The World') 64-bit
    Writing library             : libebml v1.3.9 + libmatroska v1.5.2
    Attachments                 : CINEMANIAHD.png

    Video
    ID                          : 1
    Format                      : AVC
    Format/Info                 : Advanced Video Codec
    Format profile              : High@L4.1
    Format settings             : CABAC / 4 Ref Frames
    Format settings, CABAC      : Yes
    Format settings, ReFrames   : 4 frames
    Codec ID                    : V_MPEG4/ISO/AVC
    Duration                    : 1 h 48 min
    Bit rate                    : 4 537 kb/s
    Width                       : 1 920 pixels
    Height                      : 1 080 pixels
    Display aspect ratio        : 16:9
    Frame rate mode             : Constant
    Frame rate                  : 23.976 (24000/1001) FPS
    Color space                 : YUV
    Chroma subsampling          : 4:2:0
    Bit depth                   : 8 bits
    Scan type                   : Progressive
    Bits/(Pixel*Frame)          : 0.091
    Stream size                 : 3.43 GiB (72%)
    Title                       : Full HD1080p [Bluray]
    Writing library             : x264 core 157 r2935 545de2f
    Encoding settings           : cabac=1 / ref=4 / deblock=1:0:0 / analyse=0x3:0x133 / me=tesa / subme=11 / psy=1 / psy_rd=1.00:0.00 / mixed_ref=1 / me_range=24 / chroma_me=1 / trellis=2 / 8x8dct=1 / cqm=0 / deadzone=21,11 / fast_pskip=0 / chroma_qp_offset=-2 / threads=34 / lookahead_threads=8 / sliced_threads=0 / nr=0 / decimate=1 / interlaced=0 / bluray_compat=0 / constrained_intra=0 / bframes=16 / b_pyramid=2 / b_adapt=2 / b_bias=0 / direct=3 / weightb=1 / open_gop=0 / weightp=2 / keyint=240 / keyint_min=24 / scenecut=40 / intra_refresh=0 / rc_lookahead=60 / rc=crf / mbtree=1 / crf=20.0 / qcomp=0.60 / qpmin=0 / qpmax=69 / qpstep=4 / vbv_maxrate=62500 / vbv_bufsize=78125 / crf_max=0.0 / nal_hrd=none / filler=0 / ip_ratio=1.40 / aq=1:1.00
    Default                     : Yes
    Forced                      : No
    Color range                 : Limited
    Color primaries             : BT.709
    Transfer characteristics    : BT.709
    Matrix coefficients         : BT.709

    Audio #1
    ID                          : 2
    Format                      : AC-3
    Format/Info                 : Audio Coding 3
    Commercial name             : Dolby Digital
    Codec ID                    : A_AC3
    Duration                    : 1 h 48 min
    Bit rate mode               : Constant
    Bit rate                    : 256 kb/s
    Channel(s)                  : 2 channels
    Channel layout              : L R
    Sampling rate               : 48.0 kHz
    Frame rate                  : 31.250 FPS (1536 SPF)
    Bit depth                   : 16 bits
    Compression mode            : Lossy
    Stream size                 : 198 MiB (4%)
    Title                       : AC3_2.0_Capt_Esp
    Language                    : Spanish
    Service kind                : Complete Main
    Default                     : Yes
    Forced                      : Yes

    Audio #2
    ID                          : 3
    Format                      : DTS
    Format/Info                 : Digital Theater Systems
    Codec ID                    : A_DTS
    Duration                    : 1 h 48 min
    Bit rate mode               : Constant
    Bit rate                    : 1 509 kb/s
    Channel(s)                  : 6 channels
    Channel layout              : C L R Ls Rs LFE
    Sampling rate               : 48.0 kHz
    Frame rate                  : 93.750 FPS (512 SPF)
    Bit depth                   : 24 bits
    Compression mode            : Lossy
    Stream size                 : 1.14 GiB (24%)
    Title                       : DTS_5.1_Bluray_Eng
    Language                    : English
    Default                     : No
    Forced                      : No

    Text #1
    ID                          : 4
    Format                      : PGS
    Muxing mode                 : zlib
    Codec ID                    : S_HDMV/PGS
    Codec ID/Info               : Picture based subtitle format used on BDs/HD-DVDs
    Duration                    : 1 h 40 min
    Bit rate                    : 25.9 kb/s
    Count of elements           : 1609
    Stream size                 : 18.6 MiB (0%)
    Title                       : Sub_Esp [PGS]
    Language                    : Spanish
    Default                     : No
    Forced                      : No

    Text #2
    ID                          : 5
    Format                      : PGS
    Muxing mode                 : zlib
    Codec ID                    : S_HDMV/PGS
    Codec ID/Info               : Picture based subtitle format used on BDs/HD-DVDs
    Duration                    : 1 h 45 min
    Bit rate                    : 28.7 kb/s
    Count of elements           : 2036
    Stream size                 : 21.6 MiB (0%)
    Title                       : Sub_Eng [PGS]
    Language                    : English
    Default                     : No
    Forced                      : No

    Text #3
    ID                          : 6
    Format                      : UTF-8
    Codec ID                    : S_TEXT/UTF8
    Codec ID/Info               : UTF-8 Plain Text
    Duration                    : 30 min 11 s
    Bit rate                    : 0 b/s
    Count of elements           : 5
    Stream size                 : 80.0 Bytes (0%)
    Title                       : Sub_Forzados
    Language                    : Spanish
    Default                     : Yes
    Forced                      : Yes

    Text #4
    ID                          : 7
    Format                      : UTF-8
    Codec ID                    : S_TEXT/UTF8
    Codec ID/Info               : UTF-8 Plain Text
    Duration                    : 1 h 43 min
    Bit rate                    : 44 b/s
    Count of elements           : 997
    Stream size                 : 33.7 KiB (0%)
    Title                       : Sub_Esp
    Language                    : Spanish
    Default                     : No
    Forced                      : No

    Menu
    00:00:00.000                : :Chapter 1
    00:07:59.479                : :Chapter 2
    00:16:46.255                : :Chapter 3
    00:26:58.367                : :Chapter 4
    00:36:11.544                : :Chapter 5
    00:43:18.805                : :Chapter 6
    00:50:49.046                : :Chapter 7
    00:58:28.588                : :Chapter 8
    01:06:55.178                : :Chapter 9
    01:17:13.921                : :Chapter 10
    01:26:54.835                : :Chapter 11
    01:35:12.957                : :Chapter 12

  • Peso: 4.79 GiB

Sinopsis

Descargar Rust Creek (2018) Full HD 1080p Latino, Mega, Google Drive. Sawyer (Hermione Corfield) es una joven y prometedora estudiante universitaria que se pierde mientras se dirige a una entrevista de trabajo. Antes de poder darse cuenta, se encuentra perdida en medio de un gigantesco bosque de Kentucky. Por si fuera poco, su suerte empeora cuando un grupo de criminales que se ocultan en el bosque se percata de la presencia de la joven. La aparición de un extraño hombre solitario se convierte en su único aliado para evitar caer en las garras del grupo de forajidos… y para salir con vida del bosque.

Audio Español Latino AC3 2.0 Capturado – Ingles DTS 5.1 Bluray

Nota:
Actualizado con audio Latino 🙂

Ficha técnica

Video trailer de la película

Enlaces de descarga

Rip de Bluray

Descargar Rust Creek (2018) Full HD 1080p latino




Aportes de DPeliculasHDmega la pass es:dpeliculashdmega.org Aportes de CinemaniaHD la pass es:cinemaniahdd.com

Películas relacionadas

descargar Rust Creek (2018) Full HD 1080p latino Full 1080p 1080p gratis, Rust Creek (2018) Full HD 1080p latino Full 1080p mega 1 link, Rust Creek (2018) Full HD 1080p latino Full 1080p pelicula completa, descargar Rust Creek (2018) Full HD 1080p latino Full 1080p gratis en mega.

Rust Creek (2018) Full HD 1080p latino pelicula full hd, Rust Creek (2018) Full HD 1080p latino mega latino, Rust Creek (2018) Full HD 1080p latino 4k latino, Rust Creek (2018) Full HD 1080p latino pelicula completa, Rust Creek (2018) Full HD 1080p latino descargar gratis, descargar Rust Creek (2018) Full HD 1080p latino pelicula latino, Rust Creek (2018) Full HD 1080p latino 1 link mega, Rust Creek (2018) Full HD 1080p latino 1 link google drive, Rust Creek (2018) Full HD 1080p latino hd 1080p latino.
Comentarios 0