×

¿Problemas para descargar con Mozilla, EDGE? Deshabilita la opción "Abrir vinculos en una pestaña nueva" tal como lo muestra ésta imagen.

Rust Creek (2018) REMUX 1080p Latino

822 vistas

Información de Rust Creek (2018) REMUX 1080p Latino

rust creek 54542 poster

Datos de la película

  • Calidad: Full 1080p
  • Audio: Se especifica abajo de la Sinopsis
  • Subtitulos: Español Latino PGS - Ingles PGS
  • Resolución: 1920x1080p
  • Formato: MKV
  • Codec: H.264
  • Encoder: CinefiloCool
  • Mediainfo: Clic para Mostrar Datos Ver
  • Rust Creek (2018) REMUX 1080p Latino-CMHDD.mkv
    Format                      : Matroska
    Format version              : Version 4
    File size                   : 28.4 GiB
    Duration                    : 1 h 48 min
    Overall bit rate mode       : Variable
    Overall bit rate            : 37.6 Mb/s
    Movie name                  : CinemaniaHDD.Net
    Encoded date                : UTC 2019-09-12 03:10:35
    Writing application         : mkvmerge v35.0.0 ('All The Love In The World') 64-bit
    Writing library             : libebml v1.3.9 + libmatroska v1.5.2
    Attachments                 : CINEMANIAHD.png

    Video
    ID                          : 1
    Format                      : AVC
    Format/Info                 : Advanced Video Codec
    Format profile              : High@L4.1
    Format settings             : CABAC / 4 Ref Frames
    Format settings, CABAC      : Yes
    Format settings, ReFrames   : 4 frames
    Codec ID                    : V_MPEG4/ISO/AVC
    Duration                    : 1 h 48 min
    Bit rate mode               : Constant
    Bit rate                    : 36.0 Mb/s
    Width                       : 1 920 pixels
    Height                      : 1 080 pixels
    Display aspect ratio        : 16:9
    Frame rate mode             : Constant
    Frame rate                  : 23.976 (24000/1001) FPS
    Color space                 : YUV
    Chroma subsampling          : 4:2:0
    Bit depth                   : 8 bits
    Scan type                   : Progressive
    Bits/(Pixel*Frame)          : 0.724
    Stream size                 : 25.9 GiB (91%)
    Title                       : Full HD1080p [REMUX]
    Default                     : Yes
    Forced                      : No

    Audio #1
    ID                          : 2
    Format                      : AC-3
    Format/Info                 : Audio Coding 3
    Commercial name             : Dolby Digital
    Codec ID                    : A_AC3
    Duration                    : 1 h 48 min
    Bit rate mode               : Constant
    Bit rate                    : 256 kb/s
    Channel(s)                  : 2 channels
    Channel layout              : L R
    Sampling rate               : 48.0 kHz
    Frame rate                  : 31.250 FPS (1536 SPF)
    Bit depth                   : 16 bits
    Compression mode            : Lossy
    Stream size                 : 198 MiB (1%)
    Title                       : AC3_2.0_Capt_Esp
    Language                    : Spanish
    Service kind                : Complete Main
    Default                     : Yes
    Forced                      : Yes

    Audio #2
    ID                          : 3
    Format                      : DTS XLL
    Format/Info                 : Digital Theater Systems
    Commercial name             : DTS-HD Master Audio
    Codec ID                    : A_DTS
    Duration                    : 1 h 48 min
    Bit rate mode               : Variable
    Bit rate                    : 2 950 kb/s
    Channel(s)                  : 6 channels
    Channel layout              : C L R Ls Rs LFE
    Sampling rate               : 48.0 kHz
    Frame rate                  : 93.750 FPS (512 SPF)
    Bit depth                   : 24 bits
    Compression mode            : Lossless
    Stream size                 : 2.23 GiB (8%)
    Title                       : DTS-HD_5.1_Bluray_Eng
    Language                    : English
    Default                     : No
    Forced                      : No

    Text #1
    ID                          : 4
    Format                      : PGS
    Muxing mode                 : zlib
    Codec ID                    : S_HDMV/PGS
    Codec ID/Info               : Picture based subtitle format used on BDs/HD-DVDs
    Duration                    : 1 h 40 min
    Bit rate                    : 25.9 kb/s
    Count of elements           : 1609
    Stream size                 : 18.6 MiB (0%)
    Title                       : Sub_Esp [PGS]
    Language                    : Spanish
    Default                     : No
    Forced                      : No

    Text #2
    ID                          : 5
    Format                      : PGS
    Muxing mode                 : zlib
    Codec ID                    : S_HDMV/PGS
    Codec ID/Info               : Picture based subtitle format used on BDs/HD-DVDs
    Duration                    : 1 h 45 min
    Bit rate                    : 28.7 kb/s
    Count of elements           : 2036
    Stream size                 : 21.6 MiB (0%)
    Title                       : Sub_Eng [PGS]
    Language                    : English
    Default                     : No
    Forced                      : No

    Text #3
    ID                          : 6
    Format                      : UTF-8
    Codec ID                    : S_TEXT/UTF8
    Codec ID/Info               : UTF-8 Plain Text
    Duration                    : 30 min 11 s
    Bit rate                    : 0 b/s
    Count of elements           : 5
    Stream size                 : 80.0 Bytes (0%)
    Title                       : Sub_Forzados
    Language                    : Spanish
    Default                     : Yes
    Forced                      : Yes

    Text #4
    ID                          : 7
    Format                      : UTF-8
    Codec ID                    : S_TEXT/UTF8
    Codec ID/Info               : UTF-8 Plain Text
    Duration                    : 1 h 43 min
    Bit rate                    : 44 b/s
    Count of elements           : 997
    Stream size                 : 33.7 KiB (0%)
    Title                       : Sub_Esp
    Language                    : Spanish
    Default                     : No
    Forced                      : No

    Menu
    00:00:00.000                : :Chapter 01
    00:07:59.437                : :Chapter 02
    00:16:46.172                : :Chapter 03
    00:26:58.325                : :Chapter 04
    00:36:11.503                : :Chapter 05
    00:43:18.805                : :Chapter 06
    00:50:48.963                : :Chapter 07
    00:58:28.547                : :Chapter 08
    01:06:55.094                : :Chapter 09
    01:17:13.921                : :Chapter 10
    01:26:54.751                : :Chapter 11
    01:35:12.874                : :Chapter 12

  • Peso: 28.4 GiB

Sinopsis

Descargar Rust Creek (2018) REMUX 1080p Latino. Sawyer (Hermione Corfield) es una joven y prometedora estudiante universitaria que se pierde mientras se dirige a una entrevista de trabajo. Antes de poder darse cuenta, se encuentra perdida en medio de un gigantesco bosque de Kentucky. Por si fuera poco, su suerte empeora cuando un grupo de criminales que se ocultan en el bosque se percata de la presencia de la joven. La aparición de un extraño hombre solitario se convierte en su único aliado para evitar caer en las garras del grupo de forajidos… y para salir con vida del bosque.

Audio Español Latino AC3 2.0 Capturado – Ingles DTS-HD 5.1 Bluray

nota:
actualizado con audio latino 🙂

Ficha técnica

Video trailer de la película

Enlaces de descarga

Rip de Bluray

Descargar Rust Creek (2018) REMUX 1080p Latino




Aportes de DPeliculasHDmega la pass es:dpeliculashdmega.org Aportes de CinemaniaHD la pass es:cinemaniahdd.com
Guardado en : Drama , Remux , Suspenso

Películas relacionadas

descargar Rust Creek (2018) REMUX 1080p Latino Full 1080p 1080p gratis, Rust Creek (2018) REMUX 1080p Latino Full 1080p mega 1 link, Rust Creek (2018) REMUX 1080p Latino Full 1080p pelicula completa, descargar Rust Creek (2018) REMUX 1080p Latino Full 1080p gratis en mega.

Rust Creek (2018) REMUX 1080p Latino pelicula full hd, Rust Creek (2018) REMUX 1080p Latino mega latino, Rust Creek (2018) REMUX 1080p Latino 4k latino, Rust Creek (2018) REMUX 1080p Latino pelicula completa, Rust Creek (2018) REMUX 1080p Latino descargar gratis, descargar Rust Creek (2018) REMUX 1080p Latino pelicula latino, Rust Creek (2018) REMUX 1080p Latino 1 link mega, Rust Creek (2018) REMUX 1080p Latino 1 link google drive, Rust Creek (2018) REMUX 1080p Latino hd 1080p latino.
Comentarios 0