×

¿Problemas para descargar con Mozilla, EDGE? Deshabilita la opción "Abrir vinculos en una pestaña nueva" tal como lo muestra ésta imagen.

Russian Doll (2019) Temporada 1 NF 1080p Latino

985 vistas

Información de Russian Doll (2019) Temporada 1 NF 1080p Latino

Datos de la película

  • Calidad: WEBDL
  • Audio: Español Latino AC3 5.1 Netflix - Ingles AC3 5.1 Netflix
  • Subtitulos: Español Latino SRT - Ingles SRT
  • Resolución: 1920x1080
  • Formato: MKV
  • Codec: H.264
  • Encoder: cinemaniahd
  • Mediainfo: Clic para Mostrar Datos Ver
  • Muñeca rusa T01\Muñeca rusa S01E01 NF 1080p Latino.mkv
    Format                      : Matroska
    Format version              : Version 4
    File size                   : 846 MiB
    Duration                    : 25 min 0 s
    Overall bit rate mode       : Variable
    Overall bit rate            : 4 728 kb/s
    Movie name                  : CinemaniaHDD.net
    Encoded date                : UTC 2019-02-02 00:09:57
    Writing application         : mkvmerge v30.1.0 ('Forever And More') 64-bit
    Writing library             : libebml v1.3.6 + libmatroska v1.4.9

    Video
    ID                          : 1
    Format                      : AVC
    Format/Info                 : Advanced Video Codec
    Format profile              : Main@L4
    Format settings             : CABAC / 3 Ref Frames
    Format settings, CABAC      : Yes
    Format settings, ReFrames   : 3 frames
    Codec ID                    : V_MPEG4/ISO/AVC
    Duration                    : 24 min 59 s
    Bit rate mode               : Variable
    Bit rate                    : 4 420 kb/s
    Maximum bit rate            : 6 630 kb/s
    Width                       : 1 920 pixels
    Height                      : 1 080 pixels
    Display aspect ratio        : 16:9
    Frame rate mode             : Constant
    Frame rate                  : 23.976 (24000/1001) FPS
    Color space                 : YUV
    Chroma subsampling          : 4:2:0
    Bit depth                   : 8 bits
    Scan type                   : Progressive
    Bits/(Pixel*Frame)          : 0.089
    Stream size                 : 777 MiB (92%)
    Title                       : cinemaniahdd
    Writing library             : x264 core 148 r2715 7e75228
    Encoding settings           : cabac=1 / ref=3 / deblock=1:0:0 / analyse=0x1:0x111 / me=umh / subme=10 / psy=1 / psy_rd=1.00:0.00 / mixed_ref=1 / me_range=24 / chroma_me=1 / trellis=2 / 8x8dct=0 / cqm=0 / deadzone=21,11 / fast_pskip=1 / chroma_qp_offset=-2 / threads=8 / lookahead_threads=1 / sliced_threads=0 / nr=0 / decimate=1 / interlaced=0 / bluray_compat=0 / stitchable=1 / constrained_intra=0 / bframes=2 / b_pyramid=0 / b_adapt=2 / b_bias=0 / direct=3 / weightb=1 / open_gop=0 / weightp=2 / keyint=48 / keyint_min=25 / scenecut=0 / intra_refresh=0 / rc_lookahead=48 / rc=2pass / mbtree=1 / bitrate=4420 / ratetol=1.0 / qcomp=0.50 / qpmin=6 / qpmax=51 / qpstep=4 / cplxblur=20.0 / qblur=0.5 / vbv_maxrate=6630 / vbv_bufsize=8840 / nal_hrd=vbr / filler=0 / ip_ratio=1.40 / aq=1:1.00
    Default                     : Yes
    Forced                      : No

    Audio
    ID                          : 2
    Format                      : AC-3
    Format/Info                 : Audio Coding 3
    Commercial name             : Dolby Digital
    Codec ID                    : A_AC3
    Duration                    : 25 min 0 s
    Bit rate mode               : Constant
    Bit rate                    : 384 kb/s
    Channel(s)                  : 6 channels
    Channel layout              : L R C LFE Ls Rs
    Sampling rate               : 48.0 kHz
    Frame rate                  : 31.250 FPS (1536 SPF)
    Bit depth                   : 16 bits
    Compression mode            : Lossy
    Stream size                 : 68.7 MiB (8%)
    Title                       : Español latino [cinemaniahdd]
    Language                    : Spanish
    Service kind                : Complete Main
    Default                     : Yes
    Forced                      : No

    Text #1
    ID                          : 3
    Format                      : UTF-8
    Codec ID                    : S_TEXT/UTF8
    Codec ID/Info               : UTF-8 Plain Text
    Duration                    : 24 min 16 s
    Bit rate                    : 90 b/s
    Count of elements           : 485
    Stream size                 : 16.1 KiB (0%)
    Title                       : Inglés [cinemaniahdd]
    Language                    : English
    Default                     : No
    Forced                      : No

    Text #2
    ID                          : 4
    Format                      : UTF-8
    Codec ID                    : S_TEXT/UTF8
    Codec ID/Info               : UTF-8 Plain Text
    Duration                    : 24 min 18 s
    Bit rate                    : 67 b/s
    Count of elements           : 365
    Stream size                 : 12.1 KiB (0%)
    Title                       : Español latino [cinemaniahdd]
    Language                    : Spanish
    Default                     : No
    Forced                      : No

  • Peso: 900 MB por Capitulo (7 GB Total)

Sinopsis

Muñeca Rusa (Russian Doll) es una comedia estadounidense que se centra en la extraña historia de una joven llamada Nadia. La joven acude a una fiesta en Nueva York como invitada de honor, pero un suceso misterioso hace que cambie su vida. Nadia acaba en un oscuro bucle después de acudir a la fiesta y morir, pero al día siguiente amanece normal.

Esta serie está creada por Natasha Lyonne (Orange Is the New Black), Amy Poehler (Parks and Recreation) y Leslye Headland (Bachelorette). La ficción está protagonizada por Lyonne, Greta Lee (New Girl), Yul Vazquez (Midnight, Texas), Elizabeth Ashley (Los insaciables) y Charlie Barnett (Chicago Fire). Es una producción de Netflix junto a Paper Kite Productions, 3 Arts Entertainment, Jax Media, Paper Kite Productions y Universal Television.

Ficha técnica

Video trailer de la película

Enlaces de descarga

Rip de Bluray

Descargar Russian Doll (2019) Temporada 1 NF 1080p Latino




Aportes de DPeliculasHDmega la pass es:dpeliculashdmega.org Aportes de CinemaniaHD la pass es:cinemaniahdd.com
Guardado en : Comedia , Drama , Series

Películas relacionadas

Russian Doll (2019) Temporada 1 NF 1080p Latino pelicula full hd, Russian Doll (2019) Temporada 1 NF 1080p Latino mega latino, Russian Doll (2019) Temporada 1 NF 1080p Latino 4k latino, Russian Doll (2019) Temporada 1 NF 1080p Latino pelicula completa, Russian Doll (2019) Temporada 1 NF 1080p Latino descargar gratis, descargar Russian Doll (2019) Temporada 1 NF 1080p Latino pelicula latino, Russian Doll (2019) Temporada 1 NF 1080p Latino 1 link mega, Russian Doll (2019) Temporada 1 NF 1080p Latino 1 link google drive, Russian Doll (2019) Temporada 1 NF 1080p Latino hd 1080p latino.
Comentarios 0