×

¿Problemas para descargar con Mozilla, EDGE? Deshabilita la opción "Abrir vinculos en una pestaña nueva" tal como lo muestra ésta imagen.

Rush pasión y gloria (2013) REMUX Latino – CMHDD

415 vistas

Información de Rush pasión y gloria (2013) REMUX Latino – CMHDD

Datos de la película

  • Calidad: Full 1080p
  • Audio: Español Latino DTS 5.1 BLURAY - Ingles DTS 5.1 BLURAY
  • Subtitulos: Español Latino SRT- FORZADOS SRT
  • Resolución: 1920x1080p
  • Formato: MKV
  • Codec: H.264
  • Encoder: Dracarys
  • Mediainfo: Clic para Mostrar Datos Ver
  • Format                      : Matroska
    Format version              : Version 4
    File size                   : 30.5 GiB
    Duration                    : 2 h 2 min
    Overall bit rate mode       : Variable
    Overall bit rate            : 35.5 Mb/s
    Movie name                  : Rush pasión y gloria (2013) REMUX Latino - CMHDD
    Encoded date                : UTC 2020-05-18 15:38:16
    Writing application         : mkvmerge v46.0.0 ('No Deeper Escape') 64-bit
    Writing library             : libebml v1.3.10 + libmatroska v1.5.2

    Video
    ID                          : 1
    Format                      : AVC
    Format/Info                 : Advanced Video Codec
    Format profile              : High@L4.1
    Format settings             : CABAC / 4 Ref Frames
    Format settings, CABAC      : Yes
    Format settings, Reference  : 4 frames
    Codec ID                    : V_MPEG4/ISO/AVC
    Duration                    : 2 h 2 min
    Bit rate mode               : Variable
    Bit rate                    : 30.5 Mb/s
    Maximum bit rate            : 35.0 Mb/s
    Width                       : 1 920 pixels
    Height                      : 1 080 pixels
    Display aspect ratio        : 16:9
    Frame rate mode             : Constant
    Frame rate                  : 23.976 (24000/1001) FPS
    Color space                 : YUV
    Chroma subsampling          : 4:2:0
    Bit depth                   : 8 bits
    Scan type                   : Progressive
    Bits/(Pixel*Frame)          : 0.614
    Stream size                 : 26.2 GiB (86%)
    Default                     : Yes
    Forced                      : No

    Audio #1
    ID                          : 2
    Format                      : DTS
    Format/Info                 : Digital Theater Systems
    Codec ID                    : A_DTS
    Duration                    : 2 h 2 min
    Bit rate mode               : Constant
    Bit rate                    : 768 kb/s
    Channel(s)                  : 6 channels
    Channel layout              : C L R Ls Rs LFE
    Sampling rate               : 48.0 kHz
    Frame rate                  : 93.750 FPS (512 SPF)
    Bit depth                   : 24 bits
    Compression mode            : Lossy
    Stream size                 : 675 MiB (2%)
    Language                    : Spanish
    Default                     : Yes
    Forced                      : No

    Audio #2
    ID                          : 3
    Format                      : DTS XLL
    Format/Info                 : Digital Theater Systems
    Commercial name             : DTS-HD Master Audio
    Codec ID                    : A_DTS
    Duration                    : 2 h 2 min
    Bit rate mode               : Variable
    Bit rate                    : 4 217 kb/s
    Channel(s)                  : 6 channels
    Channel layout              : C L R Ls Rs LFE
    Sampling rate               : 48.0 kHz
    Frame rate                  : 93.750 FPS (512 SPF)
    Bit depth                   : 24 bits
    Compression mode            : Lossless
    Stream size                 : 3.62 GiB (12%)
    Language                    : English
    Default                     : No
    Forced                      : No

    Text #1
    ID                          : 4
    Format                      : UTF-8
    Codec ID                    : S_TEXT/UTF8
    Codec ID/Info               : UTF-8 Plain Text
    Duration                    : 1 h 14 min
    Bit rate                    : 2 b/s
    Count of elements           : 38
    Stream size                 : 1.48 KiB (0%)
    Title                       : SRT-Forzados
    Language                    : Spanish
    Default                     : Yes
    Forced                      : No

    Text #2
    ID                          : 5
    Format                      : UTF-8
    Codec ID                    : S_TEXT/UTF8
    Codec ID/Info               : UTF-8 Plain Text
    Duration                    : 1 h 52 min
    Bit rate                    : 67 b/s
    Count of elements           : 1438
    Stream size                 : 55.0 KiB (0%)
    Title                       : SRT-Completos
    Language                    : Spanish
    Default                     : No
    Forced                      : No

    Text #3
    ID                          : 6
    Format                      : PGS
    Muxing mode                 : zlib
    Codec ID                    : S_HDMV/PGS
    Codec ID/Info               : Picture based subtitle format used on BDs/HD-DVDs
    Duration                    : 1 h 52 min
    Bit rate                    : 40.9 kb/s
    Count of elements           : 2878
    Stream size                 : 32.8 MiB (0%)
    Title                       : PGS-Completos
    Language                    : Spanish
    Default                     : No
    Forced                      : No

    Text #4
    ID                          : 7
    Format                      : PGS
    Muxing mode                 : zlib
    Codec ID                    : S_HDMV/PGS
    Codec ID/Info               : Picture based subtitle format used on BDs/HD-DVDs
    Duration                    : 1 h 14 min
    Bit rate                    : 1 822 b/s
    Count of elements           : 76
    Stream size                 : 1 001 KiB (0%)
    Title                       : PGS-Forzados
    Language                    : Spanish
    Default                     : No
    Forced                      : No

  • Peso: 30.5 GiB

Sinopsis

Ambientada en los años 70, durante la glamourosa y espectacular Edad de Oro de la Fórmula 1, «RUSH» retrata la poderosa historia real de los dos mayores rivales que el mundo ha conocido: el apuesto playboy inglés James Hunt (Chris Hemsworth), y su metódico y brillante oponente, Niki Lauda (Daniel Brühl). Dentro y fuera de la pista, los dos pilotos se presionan a sí mismos hasta llegar al límite de su resistencia física y psicológica en un mundo donde no existen atajos hacia la victoria ni margen de error. Si cometes uno, mueres.

Ficha técnica

Video trailer de la película

Enlaces de descarga

Rip de Bluray

Descargar Rush pasión y gloria (2013) REMUX Latino – CMHDD




Aportes de DPeliculasHDmega la pass es:dpeliculashdmega.org Aportes de CinemaniaHD la pass es:cinemaniahdd.com
Guardado en : Acción , Drama , Remux

Películas relacionadas

descargar Rush pasión y gloria (2013) REMUX Latino – CMHDD Full 1080p 1080p gratis, Rush pasión y gloria (2013) REMUX Latino – CMHDD Full 1080p mega 1 link, Rush pasión y gloria (2013) REMUX Latino – CMHDD Full 1080p pelicula completa, descargar Rush pasión y gloria (2013) REMUX Latino – CMHDD Full 1080p gratis en mega.

Rush pasión y gloria (2013) REMUX Latino – CMHDD pelicula full hd, Rush pasión y gloria (2013) REMUX Latino – CMHDD mega latino, Rush pasión y gloria (2013) REMUX Latino – CMHDD 4k latino, Rush pasión y gloria (2013) REMUX Latino – CMHDD pelicula completa, Rush pasión y gloria (2013) REMUX Latino – CMHDD descargar gratis, descargar Rush pasión y gloria (2013) REMUX Latino – CMHDD pelicula latino, Rush pasión y gloria (2013) REMUX Latino – CMHDD 1 link mega, Rush pasión y gloria (2013) REMUX Latino – CMHDD 1 link google drive, Rush pasión y gloria (2013) REMUX Latino – CMHDD hd 1080p latino.
Comentarios 0